Taste Of Blood – My Dragon




[Total: 0    Average: 0/5]

Artist: Taste Of Blood
Year: 2007
Genre: Metal
Notes: Discogs
Add. Notes:
Cover incl.: Yes
Encoder: FLAC
Bitrate: ~900 kBit/s (44.1 kHz/16 Bit/s)
Log & Cue incl.: Yes
Size: 444,57 MB
Password: “slam” (without ” “)


All Downloads/Hosters are compatible

Download 1
Share-online.biz
KatFile.com
Rapidgator.net
Download 2
Share-online.biz
KatFile.com
Rapidgator.net

Tracklist:

1 - Intro - 1:30
2 - My Dragon - 4:39
3 - New World - 4:27
4 - Far Away - 5:40
5 - Eternal Sleep - 4:53
6 - Timewindow - 5:45
7 - Mourn Without Words - 1:27
8 - Covered In Blood - 5:10
9 - My Last Friend - 5:09
10 - Still Paranoid - 5:42
11 - Through The Path Of Desperation - 4:58
12 - Dead End - 5:30
13 - Lost In My Own - 2:16

EAC-Log, CUE-Sheed & NFO:

Click to open spoiler
Exact Audio Copy V1.0 beta 3 from 29. August 2011

EAC extraction logfile from 31. December 2015, 4:51

Taste Of Blood / My Dragon

Used drive : HL-DT-STBD-RE BT11F Adapter: 0 ID: 2

Read mode : Secure
Utilize accurate stream : Yes
Defeat audio cache : Yes
Make use of C2 pointers : No

Read offset correction : 667
Overread into Lead-In and Lead-Out : No
Fill up missing offset samples with silence : Yes
Delete leading and trailing silent blocks : No
Null samples used in CRC calculations : Yes
Used interface : Native Win32 interface for Win NT & 2000

Used output format : User Defined Encoder
Selected bitrate : 128 kBit/s
Quality : High
Add ID3 tag : No
Command line compressor : C:\Program Files (x86)\FLAC\flac.exe
Additional command line options : -V -8 -T “Genre=%genre%” -T “Artist=%artist%” -T “Title=%title%” -T “Album=%albumtitle%” -T “Date=%year%” -T “Tracknumber=%tracknr%” -T “Comment=%comment%” %source%

TOC of the extracted CD

Track | Start | Length | Start sector | End sector
———————————————————
1 | 0:00.00 | 1:29.57 | 0 | 6731
2 | 1:29.57 | 4:38.71 | 6732 | 27652
3 | 6:08.53 | 4:26.29 | 27653 | 47631
4 | 10:35.07 | 5:39.59 | 47632 | 73115
5 | 16:14.66 | 4:52.67 | 73116 | 95082
6 | 21:07.58 | 5:44.63 | 95083 | 120945
7 | 26:52.46 | 1:26.68 | 120946 | 127463
8 | 28:19.39 | 5:09.05 | 127464 | 150643
9 | 33:28.44 | 5:08.02 | 150644 | 173745
10 | 38:36.46 | 5:41.36 | 173746 | 199356
11 | 44:18.07 | 4:58.00 | 199357 | 221706
12 | 49:16.07 | 5:29.53 | 221707 | 246434
13 | 54:45.60 | 2:15.15 | 246435 | 256574

Range status and errors

Selected range

Filename D:\VovanKoperativ_Ripped_Music\Taste Of Blood – My Dragon (FLAC) (2007)\Taste Of Blood – My Dragon.wav

Peak level 84.9 %
Extraction speed 4.2 X
Range quality 100.0 %
Test CRC 2BF41F2C
Copy CRC 2BF41F2C
Copy OK

No errors occurred

AccurateRip summary

Track 1 accurately ripped (confidence 1) [6E66BD41] (AR v1)
Track 2 accurately ripped (confidence 1) [4D1ABC05] (AR v1)
Track 3 accurately ripped (confidence 1) [5EEA92FE] (AR v1)
Track 4 accurately ripped (confidence 1) [24786639] (AR v1)
Track 5 accurately ripped (confidence 1) [D62ABE0F] (AR v1)
Track 6 accurately ripped (confidence 1) [C8F09FA2] (AR v1)
Track 7 accurately ripped (confidence 1) [F0C29047] (AR v1)
Track 8 accurately ripped (confidence 1) [D6E04E30] (AR v1)
Track 9 accurately ripped (confidence 1) [143A8EB9] (AR v1)
Track 10 accurately ripped (confidence 1) [DF51B4FC] (AR v1)
Track 11 accurately ripped (confidence 1) [F5985EE9] (AR v1)
Track 12 accurately ripped (confidence 1) [3166A9A6] (AR v1)
Track 13 accurately ripped (confidence 1) [D7B82CC6] (AR v1)

All tracks accurately ripped

End of status report

==== Log checksum E6C7DF16E1F0EE44BFB5441735C08808DFD2B977FAC7BEB5B513E1F2489CCBD2 ====

REM GENRE “Melodic Death Metal”
REM DATE 2007
REM DISCID AE0D5D0D
REM COMMENT “ExactAudioCopy v1.0b3”
PERFORMER “Taste Of Blood”
TITLE “My Dragon”
FILE “Taste Of Blood – My Dragon.flac” WAVE
TRACK 01 AUDIO
TITLE “Into”
PERFORMER “Taste Of Blood”
FLAGS DCP
INDEX 01 00:00:00
TRACK 02 AUDIO
TITLE “My Dragon”
PERFORMER “Taste Of Blood”
FLAGS DCP
INDEX 01 01:29:57
TRACK 03 AUDIO
TITLE “New World”
PERFORMER “Taste Of Blood”
FLAGS DCP
INDEX 01 06:08:53
TRACK 04 AUDIO
TITLE “Far Away”
PERFORMER “Taste Of Blood”
FLAGS DCP
INDEX 01 10:35:07
TRACK 05 AUDIO
TITLE “Eternal Sleep”
PERFORMER “Taste Of Blood”
FLAGS DCP
INDEX 01 16:14:66
TRACK 06 AUDIO
TITLE “Time Window”
PERFORMER “Taste Of Blood”
FLAGS DCP
INDEX 01 21:07:58
TRACK 07 AUDIO
TITLE “Mourn Without Words”
PERFORMER “Taste Of Blood”
FLAGS DCP
INDEX 01 26:52:46
TRACK 08 AUDIO
TITLE “Covered In Blood”
PERFORMER “Taste Of Blood”
FLAGS DCP
INDEX 01 28:19:39
TRACK 09 AUDIO
TITLE “My Last Friend”
PERFORMER “Taste Of Blood”
FLAGS DCP
INDEX 01 33:28:44
TRACK 10 AUDIO
TITLE “Still Paranoid”
PERFORMER “Taste Of Blood”
FLAGS DCP
INDEX 01 38:36:46
TRACK 11 AUDIO
TITLE “Through The Path Of Desperation”
PERFORMER “Taste Of Blood”
FLAGS DCP
INDEX 01 44:18:07
TRACK 12 AUDIO
TITLE “Dead End”
PERFORMER “Taste Of Blood”
FLAGS DCP
INDEX 01 49:16:07
TRACK 13 AUDIO
TITLE “Lost In My Own”
PERFORMER “Taste Of Blood”
FLAGS DCP
INDEX 01 54:45:60


Spread the Download

Leave a Reply

Your email address will not be published. Required fields are marked *

Enter the text from the image below
 

This site uses Akismet to reduce spam. Learn how your comment data is processed.