Tanzwut – Seemannsgarn




No Cover available

Artist: Tanzwut
Year: 2019
Genre: Metal
Notes: Discogs
Add. Notes:
Watch Songs on: YouTube
Cover incl.: Yes
Encoder: FLAC
Bitrate: ~1000 kBit/s (44.1 kHz/16 Bit/s)
Log & Cue incl.: Yes/Yes
Size: 451,8 MB
Password: “slam” (without ” “)


All Downloads/Hosters are compatible

Download 1
KatFile.com
Turbobit.net
Rapidgator.net
FileFactory.com
Download 2
KatFile.com
Turbobit.net
Rapidgator.net
FileFactory.com

Tracklist:

01. Seemannsgarn (4:57)
02. Galgenvögel (3:43)
03. Reden ist Silber (4:24)
04. Die letzte Schlacht (5:01)
05. Schwarzes Gold (3:11)
06. Ich bin der Nachtwind (4:51)
07. Der Puppenspieler (4:25)
08. Francoise Villon (4:47)
09. Das Gewissen (4:18)
10. Schmiede das Eisen (3:48)
11. Gib' mir noch ein Glas (3:53)
12. Im freien Fall (5:38)
13. Herrenlos und frei (4:20)
14. Gib' mir noch ein Glas (feat. Kärbholz) (3:51)

EAC-Log, CUE-Sheed & NFO:

Click to open spoiler
CUE Corrector v. 8.3.5 / b. 927 (Jul. 21, 2019)
————————————————————————————————————————————————————————————————————————
Tanzwut / Seemannsgarn

Folder: Tanzwut – 2019 – Seemannsgarn [FLAC]
Audio files:
01 Seemannsgarn.flac [04:56.520; FLAC • 1015 kbps • 16 bit \ 44100 Hz • stereo; 35.89 MB (37 630 159 B)]
02 Galgenvögel.flac [03:43.280; FLAC • 1103 kbps • 16 bit \ 44100 Hz • stereo; 29.36 MB (30 784 789 B)]
03 Reden ist Silber.flac [04:23.973; FLAC • 1051 kbps • 16 bit \ 44100 Hz • stereo; 33.09 MB (34 697 447 B)]
04 Die letzte Schlacht.flac [05:00.707; FLAC • 1043 kbps • 16 bit \ 44100 Hz • stereo; 37.39 MB (39 206 691 B)]
05 Schwarzes Gold.flac [03:10.800; FLAC • 1082 kbps • 16 bit \ 44100 Hz • stereo; 24.63 MB (25 822 031 B)]
06 Ich bin der Nachtwind.flac [04:51.280; FLAC • 888 kbps • 16 bit \ 44100 Hz • stereo; 30.85 MB (32 347 357 B)]
07 Der Puppenspieler.flac [04:24.667; FLAC • 1063 kbps • 16 bit \ 44100 Hz • stereo; 33.57 MB (35 198 287 B)]
08 Francoise Villon.flac [04:47.080; FLAC • 1036 kbps • 16 bit \ 44100 Hz • stereo; 35.46 MB (37 181 753 B)]
09 Das Gewissen.flac [04:17.960; FLAC • 1065 kbps • 16 bit \ 44100 Hz • stereo; 32.78 MB (34 368 371 B)]
10 Schmiede das Eisen.flac [03:47.853; FLAC • 1072 kbps • 16 bit \ 44100 Hz • stereo; 29.14 MB (30 558 418 B)]
11 Gib’ mir noch ein Glas.flac [03:52.853; FLAC • 1015 kbps • 16 bit \ 44100 Hz • stereo; 28.18 MB (29 552 598 B)]
12 Im freien Fall.flac [05:38.080; FLAC • 1047 kbps • 16 bit \ 44100 Hz • stereo; 42.23 MB (44 278 663 B)]
13 Herrenlos und frei.flac [04:20.413; FLAC • 1004 kbps • 16 bit \ 44100 Hz • stereo; 31.19 MB (32 707 230 B)]
14 Gib’ mir noch ein Glas.flac [03:51.107; FLAC • 1019 kbps • 16 bit \ 44100 Hz • stereo; 28.08 MB (29 439 415 B)]

Accuracy: -m0

File 01 Seemannsgarn – 100% CDDA [04:56:39]
File 02 Galgenvögel – 100% CDDA [03:43:21]
File 03 Reden ist Silber – 100% CDDA [04:23:73]
File 04 Die letzte Schlacht – 100% CDDA [05:00:53]
File 05 Schwarzes Gold – 99% CDDA [03:10:60]
File 06 Ich bin der Nachtwind – 100% CDDA [04:51:21]
File 07 Der Puppenspieler – 99% CDDA [04:24:50]
File 08 Francoise Villon – 100% CDDA [04:47:06]
File 09 Das Gewissen – 100% CDDA [04:17:72]
File 10 Schmiede das Eisen – 100% CDDA [03:47:64]
File 11 Gib’ mir noch ein Glas – 100% CDDA [03:52:64]
File 12 Im freien Fall – 99% CDDA [05:38:06]
File 13 Herrenlos und frei – 100% CDDA [04:20:31]
File 14 Gib’ mir noch ein Glas – 100% CDDA [03:51:08]
————— Summary: —————
These tracks looks like CDDA with probability 100%.
————————————————————————————————————————————————————————————————————————

ANALYZER:
auCDtect: CD records authenticity detector, version 0.8.2
Copyright (c) 2004 Oleg Berngardt. All rights reserved.
Copyright (c) 2004 Alexander Djourik. All rights reserved.

Time elapsed: 2 m 49 s
Log created at August 03, 2019 12:20:08

=== 1CAD048FEF14B28E59942FB671612591CC0037A4CA0AA6B98782081FEBFB4E19 ===
[свернуть]
CUETools
[CUETools log; Date: 03.08.2019 12:16:35; Version: 2.1.6]
Padded some input files to a frame boundary.
[CTDB TOCID: oPFQZY_JdII3g_ASNLPU1_64P6s-] found.
Track | CTDB Status
1 | (1/1) Accurately ripped
2 | (1/1) Accurately ripped
3 | (1/1) Accurately ripped
4 | (1/1) Accurately ripped
5 | (1/1) Accurately ripped
6 | (1/1) Accurately ripped
7 | (1/1) Accurately ripped
8 | (1/1) Accurately ripped
9 | (1/1) Accurately ripped
10 | (1/1) Accurately ripped
11 | (1/1) Accurately ripped
12 | (1/1) Accurately ripped
13 | (1/1) Accurately ripped
14 | (1/1) Accurately ripped
[AccurateRip ID: 001f8d44-01504d26-d30e520e] disk not present in database.

Track Peak [ CRC32 ] [W/O NULL]
— 96,2 [A3BA4D5A] [FA4FF7C2]
01 96,1 [06396495] [BA6887FC]
02 96,0 [A45CC6C4] [40344A65]
03 96,0 [7C0111F7] [AD9A7F28]
04 96,0 [D655F474] [C399B5B2]
05 96,0 [6307BE3F] [A210A2E9]
06 96,0 [2C3CAABC] [005573FE]
07 96,1 [4183891C] [B535B6D3]
08 96,0 [484A012E] [99ED90DB]
09 96,0 [56825898] [9359A078]
10 96,2 [0C302D53] [1E58F1E0]
11 96,0 [16B0ECAE] [8327BA10]
12 96,0 [E888E4CE] [A10F6637]
13 96,0 [F468BDC3] [CE52C1B7]
14 96,0 [BCFD5363] [CB8FF710]
[свернуть]
DR
foobar2000 1.4.6 / Замер динамического диапазона (DR) 1.1.1
Дата отчёта: 2019-08-03 12:12:24

——————————————————————————–
Анализ: Tanzwut, Kärbholz / Seemannsgarn (1)
Tanzwut / Seemannsgarn (2-14)
——————————————————————————–

DR Пики RMS Продолжительность трека
——————————————————————————–
DR5 -0.35 дБ -7.66 дБ 3:51 14-Gib’ mir noch ein Glas
DR5 -0.35 дБ -7.72 дБ 4:57 01-Seemannsgarn
DR5 -0.35 дБ -6.10 дБ 3:43 02-Galgenvögel
DR6 -0.35 дБ -7.59 дБ 4:24 03-Reden ist Silber
DR5 -0.35 дБ -6.85 дБ 5:01 04-Die letzte Schlacht
DR5 -0.35 дБ -6.41 дБ 3:11 05-Schwarzes Gold
DR6 -0.35 дБ -9.74 дБ 4:51 06-Ich bin der Nachtwind
DR5 -0.34 дБ -7.07 дБ 4:25 07-Der Puppenspieler
DR6 -0.35 дБ -8.17 дБ 4:47 08-Francoise Villon
DR5 -0.35 дБ -6.68 дБ 4:18 09-Das Gewissen
DR5 -0.34 дБ -7.93 дБ 3:48 10-Schmiede das Eisen
DR5 -0.35 дБ -7.76 дБ 3:53 11-Gib’ mir noch ein Glas
DR5 -0.35 дБ -7.05 дБ 5:38 12-Im freien Fall
DR5 -0.35 дБ -8.09 дБ 4:20 13-Herrenlos und frei
——————————————————————————–

Количество треков: 14
Реальные значения DR: DR5

Частота: 44100 Гц
Каналов: 2
Разрядность: 16
Битрейт: 976 кбит/с
Кодек: FLAC
================================================================================


0

Publication author

offline 4 days

Chaos

3
Comments: 4Publics: 3565Registration: 02-02-2019
Spread the Download

Leave a Reply

Your email address will not be published. Required fields are marked *

Enter the text from the image below
 

This site uses Akismet to reduce spam. Learn how your comment data is processed.