Tame Impala – The Slow Rush




No Cover available

Artist: Tame Impala
Year: 2020
Genre: Rock
Notes: Discogs
Add. Notes:
Watch Songs on: YouTube
Cover incl.: Yes
Encoder: FLAC
Bitrate: ~900 kBit/s (44.1 kHz/16 Bit/s)
Log & Cue incl.: Yes/Yes
Size: 368,59 MB
Password: “slam” (without ” “)


All Downloads/Hosters are compatible

Download 1
KatFile.com
Turbobit.net
Rapidgator.net
FileFactory.com
Download 2
KatFile.com
Turbobit.net
Rapidgator.net
FileFactory.com

Tracklist:

1. One More Year (05:22)
2. Instant Destiny (03:13)
3. Borderline (04:34)
4. Posthumous Forgiveness (06:06)
5. Breathe Deeper (06:12)
6. Tomorrow's Dust (05:26)
7. On Track (05:01)
8. Lost in Yesterday (04:09)
9. Is It True (03:58)
10. It Might Be Time (04:33)
11. Glimmer (02:08)
12. One More Hour (07:13)

EAC-Log, CUE-Sheed & NFO:

Click to open spoiler
X Lossless Decoder version 20191004 (152.0)

XLD extraction logfile from 2020-02-14 21:35:31 -0600

Tame Impala / The Slow Rush

Used drive : HL-DT-ST DVDRAM SP80NB60 (revision RA00)
Media type : Pressed CD

Ripper mode : XLD Secure Ripper
Disable audio cache : OK for the drive with a cache less than 1375KiB
Make use of C2 pointers : NO
Read offset correction : 6
Max retry count : 100
Gap status : Analyzed, Appended (except HTOA)

TOC of the extracted CD
Track | Start | Length | Start sector | End sector
———————————————————
1 | 00:00:00 | 05:22:28 | 0 | 24177
2 | 05:22:28 | 03:13:52 | 24178 | 38704
3 | 08:36:05 | 03:57:60 | 38705 | 56539
4 | 12:33:65 | 06:06:05 | 56540 | 83994
5 | 18:39:70 | 06:12:49 | 83995 | 111943
6 | 24:52:44 | 05:26:63 | 111944 | 136456
7 | 30:19:32 | 05:01:59 | 136457 | 159090
8 | 35:21:16 | 04:09:44 | 159091 | 177809
9 | 39:30:60 | 03:58:11 | 177810 | 195670
10 | 43:28:71 | 04:32:72 | 195671 | 216142
11 | 48:01:68 | 02:08:62 | 216143 | 225804
12 | 50:10:55 | 07:13:10 | 225805 | 258289

AccurateRip Summary
Disc not found in AccurateRip DB.

All Tracks
Album gain : -10.26 dB
Peak : 0.990845
Statistics
Read error : 0
Jitter error (maybe fixed) : 0
Retry sector count : 0
Damaged sector count : 0

Track 01
Filename : /Users/alex/xld/Tame Impala – The Slow Rush – 2020 [FLAC]/01 One More Year.flac
Pre-gap length : 00:02:00

Track gain : -10.07 dB
Peak : 0.990845
CRC32 hash (test run) : 7D23D991
CRC32 hash : 7D23D991
CRC32 hash (skip zero) : 114A6CFD
AccurateRip v1 signature : 3576AC36
AccurateRip v2 signature : 51D13921
->Track not present in AccurateRip database.
Statistics
Read error : 0
Jitter error (maybe fixed) : 0
Retry sector count : 0
Damaged sector count : 0

Track 02
Filename : /Users/alex/xld/Tame Impala – The Slow Rush – 2020 [FLAC]/02 Instant Destiny.flac

Track gain : -10.87 dB
Peak : 0.990845
CRC32 hash (test run) : 37FA3434
CRC32 hash : 37FA3434
CRC32 hash (skip zero) : EBC695C7
AccurateRip v1 signature : BD4FEE18
AccurateRip v2 signature : 0E83F02D
->Track not present in AccurateRip database.
Statistics
Read error : 0
Jitter error (maybe fixed) : 0
Retry sector count : 0
Damaged sector count : 0

Track 03
Filename : /Users/alex/xld/Tame Impala – The Slow Rush – 2020 [FLAC]/03 Borderline.flac

Track gain : -10.92 dB
Peak : 0.990845
CRC32 hash (test run) : 537FDB3A
CRC32 hash : 537FDB3A
CRC32 hash (skip zero) : 633A577B
AccurateRip v1 signature : 99216359
AccurateRip v2 signature : DF1E08CA
->Track not present in AccurateRip database.
Statistics
Read error : 0
Jitter error (maybe fixed) : 0
Retry sector count : 0
Damaged sector count : 0

Track 04
Filename : /Users/alex/xld/Tame Impala – The Slow Rush – 2020 [FLAC]/04 Posthumous Forgiveness.flac

Track gain : -9.88 dB
Peak : 0.990845
CRC32 hash (test run) : BA05EBE6
CRC32 hash : BA05EBE6
CRC32 hash (skip zero) : 1408CF9C
AccurateRip v1 signature : 23B3761A
AccurateRip v2 signature : D9853136
->Track not present in AccurateRip database.
Statistics
Read error : 0
Jitter error (maybe fixed) : 0
Retry sector count : 0
Damaged sector count : 0

Track 05
Filename : /Users/alex/xld/Tame Impala – The Slow Rush – 2020 [FLAC]/05 Breathe Deeper.flac

Track gain : -10.08 dB
Peak : 0.990845
CRC32 hash (test run) : CC02C607
CRC32 hash : CC02C607
CRC32 hash (skip zero) : 1F44B730
AccurateRip v1 signature : 5054B198
AccurateRip v2 signature : 1BA07F51
->Track not present in AccurateRip database.
Statistics
Read error : 0
Jitter error (maybe fixed) : 0
Retry sector count : 0
Damaged sector count : 0

Track 06
Filename : /Users/alex/xld/Tame Impala – The Slow Rush – 2020 [FLAC]/06 Tomorrow’s Dust.flac

Track gain : -9.34 dB
Peak : 0.988495
CRC32 hash (test run) : 749DE0E5
CRC32 hash : 749DE0E5
CRC32 hash (skip zero) : 9264FAE5
AccurateRip v1 signature : 93A80328
AccurateRip v2 signature : 0204EBC5
->Track not present in AccurateRip database.
Statistics
Read error : 0
Jitter error (maybe fixed) : 0
Retry sector count : 0
Damaged sector count : 0

Track 07
Filename : /Users/alex/xld/Tame Impala – The Slow Rush – 2020 [FLAC]/07 On Track.flac

Track gain : -9.98 dB
Peak : 0.990845
CRC32 hash (test run) : 4B2B6D79
CRC32 hash : 4B2B6D79
CRC32 hash (skip zero) : C24DABC6
AccurateRip v1 signature : 646A1CDD
AccurateRip v2 signature : CD45302C
->Track not present in AccurateRip database.
Statistics
Read error : 0
Jitter error (maybe fixed) : 0
Retry sector count : 0
Damaged sector count : 0

Track 08
Filename : /Users/alex/xld/Tame Impala – The Slow Rush – 2020 [FLAC]/08 Lost in Yesterday.flac

Track gain : -10.98 dB
Peak : 0.990845
CRC32 hash (test run) : 2D98CB4C
CRC32 hash : 2D98CB4C
CRC32 hash (skip zero) : EEF5A2A3
AccurateRip v1 signature : 7A65A81F
AccurateRip v2 signature : 970175CF
->Track not present in AccurateRip database.
Statistics
Read error : 0
Jitter error (maybe fixed) : 0
Retry sector count : 0
Damaged sector count : 0

Track 09
Filename : /Users/alex/xld/Tame Impala – The Slow Rush – 2020 [FLAC]/09 Is It True.flac

Track gain : -11.11 dB
Peak : 0.982788
CRC32 hash (test run) : 99523127
CRC32 hash : 99523127
CRC32 hash (skip zero) : F0DED82F
AccurateRip v1 signature : 1CD052D9
AccurateRip v2 signature : A58CFC52
->Track not present in AccurateRip database.
Statistics
Read error : 0
Jitter error (maybe fixed) : 0
Retry sector count : 0
Damaged sector count : 0

Track 10
Filename : /Users/alex/xld/Tame Impala – The Slow Rush – 2020 [FLAC]/10 It Might Be Time.flac

Track gain : -11.40 dB
Peak : 0.990845
CRC32 hash (test run) : 1C279968
CRC32 hash : 1C279968
CRC32 hash (skip zero) : 6028A136
AccurateRip v1 signature : CDFCE9F7
AccurateRip v2 signature : 7E7340CF
->Track not present in AccurateRip database.
Statistics
Read error : 0
Jitter error (maybe fixed) : 0
Retry sector count : 0
Damaged sector count : 0

Track 11
Filename : /Users/alex/xld/Tame Impala – The Slow Rush – 2020 [FLAC]/11 Glimmer.flac

Track gain : -7.45 dB
Peak : 0.990845
CRC32 hash (test run) : 13910B99
CRC32 hash : 13910B99
CRC32 hash (skip zero) : 21BAF158
AccurateRip v1 signature : C8C642EA
AccurateRip v2 signature : 62534376
->Track not present in AccurateRip database.
Statistics
Read error : 0
Jitter error (maybe fixed) : 0
Retry sector count : 0
Damaged sector count : 0

Track 12
Filename : /Users/alex/xld/Tame Impala – The Slow Rush – 2020 [FLAC]/12 One More Hour.flac

Track gain : -8.78 dB
Peak : 0.990845
CRC32 hash (test run) : 1D16561F
CRC32 hash : 1D16561F
CRC32 hash (skip zero) : 0DD04A6A
AccurateRip v1 signature : 51319CA0
AccurateRip v2 signature : 9A7B8DD2
->Track not present in AccurateRip database.
Statistics
Read error : 0
Jitter error (maybe fixed) : 0
Retry sector count : 0
Damaged sector count : 0

No errors occurred

End of status report

—–BEGIN XLD SIGNATURE—–
NSlsv9Za5NjPJMbqWykKrM2z5VDNuUO12Eb_0Y6nQlrxaLFP1I7tTacF_Z7kLdG03LsUyIS4u9nhh1xHQRgoi9.eZhkpnMTY.lO1J1S
—–END XLD SIGNATURE—–

TITLE “The Slow Rush”
PERFORMER “Tame Impala”
CATALOG 0602577579608
REM GENRE “Alternative”
REM DATE “2020”
REM DISCNUMBER 1
REM DISCID 870D730C
REM REPLAYGAIN_ALBUM_GAIN -10.26 dB
REM REPLAYGAIN_ALBUM_PEAK 0.990845
FILE “01 One More Year.flac” WAVE
TRACK 01 AUDIO
TITLE “One More Year”
PERFORMER “Tame Impala”
ISRC AUUM71900926
REM REPLAYGAIN_TRACK_GAIN -10.07 dB
REM REPLAYGAIN_TRACK_PEAK 0.990845
INDEX 01 00:00:00
FILE “02 Instant Destiny.flac” WAVE
TRACK 02 AUDIO
TITLE “Instant Destiny”
PERFORMER “Tame Impala”
ISRC AUUM71900927
REM REPLAYGAIN_TRACK_GAIN -10.87 dB
REM REPLAYGAIN_TRACK_PEAK 0.990845
INDEX 01 00:00:00
FILE “03 Borderline.flac” WAVE
TRACK 03 AUDIO
TITLE “Borderline”
PERFORMER “Tame Impala”
ISRC AUUM71900956
REM REPLAYGAIN_TRACK_GAIN -10.92 dB
REM REPLAYGAIN_TRACK_PEAK 0.990845
INDEX 01 00:00:00
FILE “04 Posthumous Forgiveness.flac” WAVE
TRACK 04 AUDIO
TITLE “Posthumous Forgiveness”
PERFORMER “Tame Impala”
ISRC AUUM71900928
REM REPLAYGAIN_TRACK_GAIN -9.88 dB
REM REPLAYGAIN_TRACK_PEAK 0.990845
INDEX 01 00:00:00
FILE “05 Breathe Deeper.flac” WAVE
TRACK 05 AUDIO
TITLE “Breathe Deeper”
PERFORMER “Tame Impala”
ISRC AUUM71900929
REM REPLAYGAIN_TRACK_GAIN -10.08 dB
REM REPLAYGAIN_TRACK_PEAK 0.990845
INDEX 01 00:00:00
FILE “06 Tomorrow’s Dust.flac” WAVE
TRACK 06 AUDIO
TITLE “Tomorrow’s Dust”
PERFORMER “Tame Impala”
ISRC AUUM71900930
REM REPLAYGAIN_TRACK_GAIN -9.34 dB
REM REPLAYGAIN_TRACK_PEAK 0.988495
INDEX 01 00:00:00
FILE “07 On Track.flac” WAVE
TRACK 07 AUDIO
TITLE “On Track”
PERFORMER “Tame Impala”
ISRC AUUM71900931
REM REPLAYGAIN_TRACK_GAIN -9.98 dB
REM REPLAYGAIN_TRACK_PEAK 0.990845
INDEX 01 00:00:00
FILE “08 Lost in Yesterday.flac” WAVE
TRACK 08 AUDIO
TITLE “Lost in Yesterday”
PERFORMER “Tame Impala”
ISRC AUUM71900932
REM REPLAYGAIN_TRACK_GAIN -10.98 dB
REM REPLAYGAIN_TRACK_PEAK 0.990845
INDEX 01 00:00:00
FILE “09 Is It True.flac” WAVE
TRACK 09 AUDIO
TITLE “Is It True”
PERFORMER “Tame Impala”
ISRC AUUM71900933
REM REPLAYGAIN_TRACK_GAIN -11.11 dB
REM REPLAYGAIN_TRACK_PEAK 0.982788
INDEX 01 00:00:00
FILE “10 It Might Be Time.flac” WAVE
TRACK 10 AUDIO
TITLE “It Might Be Time”
PERFORMER “Tame Impala”
ISRC AUUM71900301
REM REPLAYGAIN_TRACK_GAIN -11.40 dB
REM REPLAYGAIN_TRACK_PEAK 0.990845
INDEX 01 00:00:00
FILE “11 Glimmer.flac” WAVE
TRACK 11 AUDIO
TITLE “Glimmer”
PERFORMER “Tame Impala”
ISRC AUUM71900934
REM REPLAYGAIN_TRACK_GAIN -7.45 dB
REM REPLAYGAIN_TRACK_PEAK 0.990845
INDEX 01 00:00:00
FILE “12 One More Hour.flac” WAVE
TRACK 12 AUDIO
TITLE “One More Hour”
PERFORMER “Tame Impala”
ISRC AUUM71900935
REM REPLAYGAIN_TRACK_GAIN -8.78 dB
REM REPLAYGAIN_TRACK_PEAK 0.990845
INDEX 01 00:00:00


Leave a Reply

Your email address will not be published. Required fields are marked *

Enter the text from the image below
 

This site uses Akismet to reduce spam. Learn how your comment data is processed.