Swing – Fitz of Depression




Artist: Swing
Year: 1996
Genre: Hardcore
Notes: Discogs
Add. Notes:
Cover incl.: Yes
Encoder: FLAC
Bitrate: ~1000 kBit/s (44.1 kHz/16 Bit/s)
Log & Cue incl.: Yes
Size: 194,19 MB
Password: “slam” (without ” “)


All Downloads/Hosters are compatible

Download 1
Turbobit.net
Rapidgator.net
UploadEver.com
KatFile.com
UsersDrive.com
Download 2
Turbobit.net
Rapidgator.net
UploadEver.com
KatFile.com
UsersDrive.com
Download 3
Turbobit.net
Rapidgator.net
UploadEver.com
KatFile.com
UsersDrive.com

Tracklist:

1 - We Three - 1:45
2 - My Good Name - 1:51
3 - Form A Line - 1:48
4 - No Movie Tonight - 1:55
5 - Time To Leave - 2:16
6 - Connect The Dot - 2:17
7 - She Wants To Know - 2:04
8 - Mind Over Matter - 1:41
9 - House Or Home - 2:54
10 - I Can't - 2:16
11 - New Disgrace - 2:02
12 - Shimmy - 3:49

EAC-Log, CUE-Sheed & NFO:

Click to open spoiler
Exact Audio Copy V1.3 from 2. September 2016

EAC extraction logfile from 20. April 2017, 16:59

Fitz of Depression / Swing

Used drive : TSSTcorpCDDVDW SH-224DB Adapter: 1 ID: 0

Read mode : Secure
Utilize accurate stream : Yes
Defeat audio cache : Yes
Make use of C2 pointers : No

Read offset correction : 6
Overread into Lead-In and Lead-Out : No
Fill up missing offset samples with silence : Yes
Delete leading and trailing silent blocks : No
Null samples used in CRC calculations : Yes
Used interface : Native Win32 interface for Win NT & 2000
Gap handling : Appended to previous track

Used output format : User Defined Encoder
Selected bitrate : 1024 kBit/s
Quality : High
Add ID3 tag : No
Command line compressor : C:\Program Files\Exact Audio Copy\FLAC\FLAC.EXE
Additional command line options : -8 -V -T “ARTIST=%artist%” -T “TITLE=%title%” -T “ALBUM=%albumtitle%” -T “DATE=%year%” -T “TRACKNUMBER=%tracknr%” -T “GENRE=%genre%” -T “PERFORMER=%albuminterpret%” -T “COMPOSER=%composer%” %haslyrics%–tag-from-file=LYRICS=”%lyricsfile%”%haslyrics% -T “ALBUMARTIST=%albumartist%” -T “DISCNUMBER=%cdnumber%” -T “TOTALDISCS=%totalcds%” -T “TOTALTRACKS=%numtracks%” -T “COMMENT=%comment%” %source% -o %dest%

TOC of the extracted CD

Track | Start | Length | Start sector | End sector
———————————————————
1 | 0:00.32 | 1:51.08 | 32 | 8364
2 | 1:51.40 | 1:51.70 | 8365 | 16759
3 | 3:43.35 | 1:53.55 | 16760 | 25289
4 | 5:37.15 | 1:57.62 | 25290 | 34126
5 | 7:35.02 | 2:23.00 | 34127 | 44851
6 | 9:58.02 | 2:21.28 | 44852 | 55454
7 | 12:19.30 | 2:05.22 | 55455 | 64851
8 | 14:24.52 | 1:40.70 | 64852 | 72421
9 | 16:05.47 | 2:19.23 | 72422 | 82869
10 | 18:24.70 | 2:20.15 | 82870 | 93384
11 | 20:45.10 | 2:14.40 | 93385 | 103474
12 | 22:59.50 | 3:50.27 | 103475 | 120751

Track 1

Filename C:\Fitz of Depression – Swing (K Records, 1996) EAC-FLAC\01. Fitz of Depression – We Three.wav

Pre-gap length 0:00:02.42

Peak level 100.0 %
Extraction speed 1.4 X
Track quality 100.0 %
Test CRC 3D5E5994
Copy CRC 3D5E5994
Accurately ripped (confidence 1) [A8997B47] (AR v1)
Copy OK

Track 2

Filename C:\Fitz of Depression – Swing (K Records, 1996) EAC-FLAC\02. Fitz of Depression – My Good Name.wav

Peak level 100.0 %
Extraction speed 1.5 X
Track quality 100.0 %
Test CRC 42752B6F
Copy CRC 42752B6F
Accurately ripped (confidence 1) [0C4F3ED5] (AR v1)
Copy OK

Track 3

Filename C:\Fitz of Depression – Swing (K Records, 1996) EAC-FLAC\03. Fitz of Depression – Form a Line.wav

Peak level 100.0 %
Extraction speed 1.5 X
Track quality 100.0 %
Test CRC F631B271
Copy CRC F631B271
Accurately ripped (confidence 1) [D2285FC6] (AR v1)
Copy OK

Track 4

Filename C:\Fitz of Depression – Swing (K Records, 1996) EAC-FLAC\04. Fitz of Depression – No Movie Tonight.wav

Peak level 100.0 %
Extraction speed 1.3 X
Track quality 99.9 %
Test CRC 7C6F7DA1
Copy CRC 7C6F7DA1
Accurately ripped (confidence 1) [1AA0C7C2] (AR v1)
Copy OK

Track 5

Filename C:\Fitz of Depression – Swing (K Records, 1996) EAC-FLAC\05. Fitz of Depression – Time to Leave.wav

Peak level 100.0 %
Extraction speed 1.8 X
Track quality 100.0 %
Test CRC 1E681F96
Copy CRC 1E681F96
Accurately ripped (confidence 1) [8D62A969] (AR v1)
Copy OK

Track 6

Filename C:\Fitz of Depression – Swing (K Records, 1996) EAC-FLAC\06. Fitz of Depression – Connect the Dot.wav

Peak level 100.0 %
Extraction speed 1.9 X
Track quality 100.0 %
Test CRC A4796410
Copy CRC A4796410
Accurately ripped (confidence 1) [49815FE7] (AR v1)
Copy OK

Track 7

Filename C:\Fitz of Depression – Swing (K Records, 1996) EAC-FLAC\07. Fitz of Depression – She Wants to Know.wav

Peak level 100.0 %
Extraction speed 1.9 X
Track quality 100.0 %
Test CRC 66310E9F
Copy CRC 66310E9F
Accurately ripped (confidence 1) [85D72F60] (AR v1)
Copy OK

Track 8

Filename C:\Fitz of Depression – Swing (K Records, 1996) EAC-FLAC\08. Fitz of Depression – Mind Over Matter.wav

Peak level 100.0 %
Extraction speed 1.4 X
Track quality 99.8 %
Test CRC B4D9B18B
Copy CRC B4D9B18B
Accurately ripped (confidence 1) [4A36C410] (AR v1)
Copy OK

Track 9

Filename C:\Fitz of Depression – Swing (K Records, 1996) EAC-FLAC\09. Fitz of Depression – House or Home.wav

Peak level 100.0 %
Extraction speed 2.1 X
Track quality 100.0 %
Test CRC 46886361
Copy CRC 46886361
Accurately ripped (confidence 1) [A2F68865] (AR v1)
Copy OK

Track 10

Filename C:\Fitz of Depression – Swing (K Records, 1996) EAC-FLAC\10. Fitz of Depression – I Can’t.wav

Peak level 100.0 %
Extraction speed 2.2 X
Track quality 100.0 %
Test CRC 6A3ACE22
Copy CRC 6A3ACE22
Accurately ripped (confidence 1) [0A37FFE9] (AR v1)
Copy OK

Track 11

Filename C:\Fitz of Depression – Swing (K Records, 1996) EAC-FLAC\11. Fitz of Depression – New Disgrace.wav

Peak level 100.0 %
Extraction speed 2.2 X
Track quality 100.0 %
Test CRC 35063843
Copy CRC 35063843
Accurately ripped (confidence 1) [D813BB5B] (AR v1)
Copy OK

Track 12

Filename C:\Fitz of Depression – Swing (K Records, 1996) EAC-FLAC\12. Fitz of Depression – Shimmy.wav

Peak level 100.0 %
Extraction speed 2.5 X
Track quality 100.0 %
Test CRC 9A0C92EA
Copy CRC 9A0C92EA
Accurately ripped (confidence 1) [2CBA6C7E] (AR v1)
Copy OK

All tracks accurately ripped

No errors occurred

End of status report

—- CUETools DB Plugin V2.1.6

[CTDB TOCID: jBTqYok.Wlc6ImU6mhYilrNp.KA-] found
Submit result: jBTqYok.Wlc6ImU6mhYilrNp.KA- has been confirmed
Track | CTDB Status
1 | (1/1) Accurately ripped
2 | (1/1) Accurately ripped
3 | (1/1) Accurately ripped
4 | (1/1) Accurately ripped
5 | (1/1) Accurately ripped
6 | (1/1) Accurately ripped
7 | (1/1) Accurately ripped
8 | (1/1) Accurately ripped
9 | (1/1) Accurately ripped
10 | (1/1) Accurately ripped
11 | (1/1) Accurately ripped
12 | (1/1) Accurately ripped

==== Log checksum 0C42589DA0802711F5B157A119FB5AD0A5DB88634DE100F26752A7C3548C3B64 ====

REM GENRE Rock
REM DATE 1996
REM DISCID 8E064A0C
REM COMMENT “ExactAudioCopy v1.3”
PERFORMER “Fitz of Depression”
TITLE “Swing”
REM COMPOSER “”
FILE “01. Fitz of Depression – We Three.wav” WAVE
TRACK 01 AUDIO
TITLE “We Three”
PERFORMER “Fitz of Depression”
REM COMPOSER “”
PREGAP 00:00:32
INDEX 01 00:00:00
FILE “02. Fitz of Depression – My Good Name.wav” WAVE
TRACK 02 AUDIO
TITLE “My Good Name”
PERFORMER “Fitz of Depression”
REM COMPOSER “”
INDEX 01 00:00:00
FILE “03. Fitz of Depression – Form a Line.wav” WAVE
TRACK 03 AUDIO
TITLE “Form a Line”
PERFORMER “Fitz of Depression”
REM COMPOSER “”
INDEX 01 00:00:00
FILE “04. Fitz of Depression – No Movie Tonight.wav” WAVE
TRACK 04 AUDIO
TITLE “No Movie Tonight”
PERFORMER “Fitz of Depression”
REM COMPOSER “”
INDEX 01 00:00:00
FILE “05. Fitz of Depression – Time to Leave.wav” WAVE
TRACK 05 AUDIO
TITLE “Time to Leave”
PERFORMER “Fitz of Depression”
REM COMPOSER “”
INDEX 01 00:00:00
FILE “06. Fitz of Depression – Connect the Dot.wav” WAVE
TRACK 06 AUDIO
TITLE “Connect the Dot”
PERFORMER “Fitz of Depression”
REM COMPOSER “”
INDEX 01 00:00:00
FILE “07. Fitz of Depression – She Wants to Know.wav” WAVE
TRACK 07 AUDIO
TITLE “She Wants to Know”
PERFORMER “Fitz of Depression”
REM COMPOSER “”
INDEX 01 00:00:00
FILE “08. Fitz of Depression – Mind Over Matter.wav” WAVE
TRACK 08 AUDIO
TITLE “Mind Over Matter”
PERFORMER “Fitz of Depression”
REM COMPOSER “”
INDEX 01 00:00:00
FILE “09. Fitz of Depression – House or Home.wav” WAVE
TRACK 09 AUDIO
TITLE “House or Home”
PERFORMER “Fitz of Depression”
REM COMPOSER “”
INDEX 01 00:00:00
FILE “10. Fitz of Depression – I Can’t.wav” WAVE
TRACK 10 AUDIO
TITLE “I Can’t”
PERFORMER “Fitz of Depression”
REM COMPOSER “”
INDEX 01 00:00:00
FILE “11. Fitz of Depression – New Disgrace.wav” WAVE
TRACK 11 AUDIO
TITLE “New Disgrace”
PERFORMER “Fitz of Depression”
REM COMPOSER “”
INDEX 01 00:00:00
FILE “12. Fitz of Depression – Shimmy.wav” WAVE
TRACK 12 AUDIO
TITLE “Shimmy”
PERFORMER “Fitz of Depression”
REM COMPOSER “”
INDEX 01 00:00:00


Leave a Reply

Your email address will not be published. Required fields are marked *

Enter the text from the image below
 

This site uses Akismet to reduce spam. Learn how your comment data is processed.