Sunny Day Real Estate – The Rising Tide




Artist: Sunny Day Real Estate
Year: 2000
Genre: Rock
Notes: Discogs
Add. Notes:
Cover incl.: Yes
Encoder: FLAC
Bitrate: ~1000 kBit/s (44.1 kHz/16 Bit/s)
Log & Cue incl.: Yes
Size: 359,08 MB
Password: “slam” (without ” “)


All Downloads/Hosters are compatible

Download 1
Turbobit.net
KatFile.com
Rapidgator.net
ddl.to
Download 2
Turbobit.net
KatFile.com
Rapidgator.net
ddl.to

Tracklist:

1 - Killed By An Angel - 4:56
2 - One - 4:09
3 - Rain Song - 4:04
4 - Disappear - 4:09
5 - Snibe - 4:29
6 - The Ocean - 4:51
7 - Fool In The Photograph - 4:10
8 - Tearing In My Heart - 5:07
9 - Television - 4:31
10 - Faces In Disguise - 6:03
11 - The Rising Tide - 5:37

EAC-Log, CUE-Sheed & NFO:

Click to open spoiler
Exact Audio Copy V0.99 prebeta 4 from 23. January 2008

EAC extraction logfile from 3. July 2008, 19:28

Sunny Day Real Estate / The Rising Tide

Used drive : TDK CDRW401240B Adapter: 1 ID: 2

Read mode : Secure
Utilize accurate stream : Yes
Defeat audio cache : Yes
Make use of C2 pointers : No

Read offset correction : 12
Overread into Lead-In and Lead-Out : No
Fill up missing offset samples with silence : Yes
Delete leading and trailing silent blocks : No
Null samples used in CRC calculations : Yes
Used interface : Native Win32 interface for Win NT & 2000
Gap handling : Appended to previous track

Used output format : User Defined Encoder
Selected bitrate : 320 kBit/s
Quality : High
Add ID3 tag : No
Command line compressor : C:\Program Files\Exact Audio Copy\Flac\flac.exe
Additional command line options : -V -8 -T “artist=%a” -T “title=%t” -T “album=%g” -T “date=%y” -T “tracknumber=%n” -T “genre=%m” %s

TOC of the extracted CD

Track | Start | Length | Start sector | End sector
———————————————————
1 | 0:00.00 | 4:55.40 | 0 | 22164
2 | 4:55.40 | 4:09.17 | 22165 | 40856
3 | 9:04.57 | 4:03.43 | 40857 | 59124
4 | 13:08.25 | 4:09.32 | 59125 | 77831
5 | 17:17.57 | 4:29.15 | 77832 | 98021
6 | 21:46.72 | 4:50.53 | 98022 | 119824
7 | 26:37.50 | 4:09.52 | 119825 | 138551
8 | 30:47.27 | 5:07.20 | 138552 | 161596
9 | 35:54.47 | 4:31.28 | 161597 | 181949
10 | 40:26.00 | 6:02.72 | 181950 | 209171
11 | 46:28.72 | 5:37.35 | 209172 | 234481

Track 1

Filename D:\EACrips\Sunny Day Real Estate – 2000 – The Rising Tide\01 – Killed By An Angel.wav

Pre-gap length 0:00:02.00

Peak level 99.8 %
Track quality 99.9 %
Test CRC 312511C4
Copy CRC 312511C4
Accurately ripped (confidence 5) [B8A9C49B]
Copy OK

Track 2

Filename D:\EACrips\Sunny Day Real Estate – 2000 – The Rising Tide\02 – One.wav

Pre-gap length 0:00:01.10

Peak level 99.8 %
Track quality 100.0 %
Test CRC 7F4DFB60
Copy CRC 7F4DFB60
Accurately ripped (confidence 5) [1FC7C599]
Copy OK

Track 3

Filename D:\EACrips\Sunny Day Real Estate – 2000 – The Rising Tide\03 – Rain Song.wav

Pre-gap length 0:00:01.80

Peak level 99.8 %
Track quality 100.0 %
Test CRC 5E345720
Copy CRC 5E345720
Accurately ripped (confidence 4) [D777F762]
Copy OK

Track 4

Filename D:\EACrips\Sunny Day Real Estate – 2000 – The Rising Tide\04 – Disappear.wav

Peak level 99.8 %
Track quality 100.0 %
Test CRC CCF424C5
Copy CRC CCF424C5
Accurately ripped (confidence 5) [68BE0863]
Copy OK

Track 5

Filename D:\EACrips\Sunny Day Real Estate – 2000 – The Rising Tide\05 – Snibe.wav

Peak level 99.8 %
Track quality 100.0 %
Test CRC C39C8EBA
Copy CRC C39C8EBA
Accurately ripped (confidence 5) [092AD77F]
Copy OK

Track 6

Filename D:\EACrips\Sunny Day Real Estate – 2000 – The Rising Tide\06 – The Ocean.wav

Pre-gap length 0:00:01.76

Peak level 99.8 %
Track quality 100.0 %
Test CRC FEB1015E
Copy CRC FEB1015E
Accurately ripped (confidence 4) [CC929C8A]
Copy OK

Track 7

Filename D:\EACrips\Sunny Day Real Estate – 2000 – The Rising Tide\07 – Fool In The Photograph.wav

Pre-gap length 0:00:01.37

Peak level 99.8 %
Track quality 99.9 %
Test CRC FD927759
Copy CRC FD927759
Accurately ripped (confidence 5) [A08960A7]
Copy OK

Track 8

Filename D:\EACrips\Sunny Day Real Estate – 2000 – The Rising Tide\08 – Tearing In My Heart.wav

Pre-gap length 0:00:02.53

Peak level 99.8 %
Track quality 100.0 %
Test CRC 163637F3
Copy CRC 163637F3
Accurately ripped (confidence 5) [0120BAC4]
Copy OK

Track 9

Filename D:\EACrips\Sunny Day Real Estate – 2000 – The Rising Tide\09 – Television.wav

Peak level 99.8 %
Track quality 100.0 %
Test CRC 8D6AB029
Copy CRC 8D6AB029
Accurately ripped (confidence 5) [02A2A116]
Copy OK

Track 10

Filename D:\EACrips\Sunny Day Real Estate – 2000 – The Rising Tide\10 – Faces In Disguise.wav

Peak level 99.8 %
Track quality 99.9 %
Test CRC 57364645
Copy CRC 57364645
Accurately ripped (confidence 4) [8CA912A2]
Copy OK

Track 11

Filename D:\EACrips\Sunny Day Real Estate – 2000 – The Rising Tide\11 – The Rising Tide.wav

Pre-gap length 0:00:01.40

Peak level 99.8 %
Track quality 100.0 %
Test CRC 20B49821
Copy CRC 20B49821
Accurately ripped (confidence 5) [549C4046]
Copy OK

All tracks accurately ripped

No errors occurred

End of status report

REM GENRE Rock
REM DATE 2000
REM DISCID AA0C360B
REM COMMENT “ExactAudioCopy v0.99pb4”
PERFORMER “Sunny Day Real Estate”
TITLE “The Rising Tide”
FILE “01 Killed By An Angel.flac” WAVE
TRACK 01 AUDIO
TITLE “Killed By An Angel”
PERFORMER “Sunny Day Real Estate”
INDEX 01 00:00:00
TRACK 02 AUDIO
TITLE “One”
PERFORMER “Sunny Day Real Estate”
INDEX 00 04:54:32
FILE “02 One.flac” WAVE
INDEX 01 00:00:00
TRACK 03 AUDIO
TITLE “Rain Song”
PERFORMER “Sunny Day Real Estate”
INDEX 00 04:07:32
FILE “03 Rain Song.flac” WAVE
INDEX 01 00:00:00
FILE “04 Disappear.flac” WAVE
TRACK 04 AUDIO
TITLE “Disappear”
PERFORMER “Sunny Day Real Estate”
INDEX 01 00:00:00
FILE “05 Snibe.flac” WAVE
TRACK 05 AUDIO
TITLE “Snibe”
PERFORMER “Sunny Day Real Estate”
INDEX 01 00:00:00
TRACK 06 AUDIO
TITLE “The Ocean”
PERFORMER “Sunny Day Real Estate”
INDEX 00 04:27:33
FILE “06 The Ocean.flac” WAVE
INDEX 01 00:00:00
TRACK 07 AUDIO
TITLE “Fool In The Photograph”
PERFORMER “Sunny Day Real Estate”
INDEX 00 04:49:25
FILE “07 Fool In The Photograph.flac” WAVE
INDEX 01 00:00:00
TRACK 08 AUDIO
TITLE “Tearing In My Heart”
PERFORMER “Sunny Day Real Estate”
INDEX 00 04:07:12
FILE “08 Tearing In My Heart.flac” WAVE
INDEX 01 00:00:00
FILE “09 Television.flac” WAVE
TRACK 09 AUDIO
TITLE “Television”
PERFORMER “Sunny Day Real Estate”
INDEX 01 00:00:00
FILE “10 Faces In Disguise.flac” WAVE
TRACK 10 AUDIO
TITLE “Faces In Disguise”
PERFORMER “Sunny Day Real Estate”
INDEX 01 00:00:00
TRACK 11 AUDIO
TITLE “The Rising Tide”
PERFORMER “Sunny Day Real Estate”
INDEX 00 06:01:42
FILE “11 The Rising Tide.flac” WAVE
INDEX 01 00:00:00


0

Publication author

offline 11 hours

Chaos

3
Comments: 3Publics: 3189Registration: 02-02-2019
Spread the Download

Leave a Reply

Your email address will not be published. Required fields are marked *

Enter the text from the image below
 

This site uses Akismet to reduce spam. Learn how your comment data is processed.