Sunny Day Real Estate – Sunny Day Real Estate (Remastered)




[Total: 0    Average: 0/5]

Artist: Sunny Day Real Estate
Year: 1995/2009
Genre: Rock
Notes: Discogs
Add. Notes: Remastered
Cover incl.: Yes
Encoder: FLAC
Bitrate: ~900 kBit/s (44.1 kHz/16 Bit/s)
Log & Cue incl.: Yes
Size: 322,89 MB
Password: “slam” (without ” “)


All Downloads/Hosters are compatible

Download 1
Share-online.biz
NitroFlare.com
KatFile.com
Turbobit.net
Download 2
Share-online.biz
NitroFlare.com
KatFile.com
Turbobit.net

Tracklist:

1 - Friday - 2:29
2 - Theo B - 3:05
3 - Red Elephant - 3:19
4 - 5/4 - 3:33
5 - Waffle - 4:25
6 - 8 - 5:28
7 - Iscarabaid - 4:47
8 - J'nuh - 4:52
9 - Rodeo Jones - 5:09
10 - Spade And Parade - 4:28
11 - Bucket Of Chicken - 5:29

EAC-Log, CUE-Sheed & NFO:

Click to open spoiler
X Lossless Decoder version 20090924 (109.9)

XLD extraction logfile from 2009-09-29 22:31:33 -0400

Sunny Day Real Estate / LP2 [remaster+2]

Used drive : MATSHITA DVD-R UJ-868 (revision KA14)

Use cdparanoia mode : YES (CDParanoia III 10.2 engine)
Disable audio cache : OK for the drive with cache less than 2750KB
Make use of C2 pointers : NO
Read offset correction : 102
Max retry count : 100

TOC of the extracted CD
Track | Start | Length | Start sector | End sector
———————————————————
1 | 00:00:00 | 02:29:63 | 0 | 11237
2 | 02:29:63 | 03:05:11 | 11238 | 25123
3 | 05:34:74 | 03:18:73 | 25124 | 40046
4 | 08:53:72 | 03:32:61 | 40047 | 56007
5 | 12:26:58 | 04:25:65 | 56008 | 75947
6 | 16:52:48 | 05:28:31 | 75948 | 100578
7 | 22:21:04 | 04:48:14 | 100579 | 122192
8 | 27:09:18 | 04:50:41 | 122193 | 143983
9 | 31:59:59 | 05:13:23 | 143984 | 167481
10 | 37:13:07 | 04:27:48 | 167482 | 187554
11 | 41:40:55 | 05:29:10 | 187555 | 212239

Track 01
Filename : /Users/omarshaukat/Desktop/Sunny Day Real Estate – LP2/01 Sunny Day Real Estate – Friday.flac

CRC32 hash (test run) : 7534BCF1
CRC32 hash : 7534BCF1
CRC32 hash (skip zero) : 11CC99B8
AccurateRip signature : 044CD588
->Track not present in AccurateRip database.
Statistics
Read error : 0
Skipped (treated as error) : 0
Edge jitter error (maybe fixed) : 0
Atom jitter error (maybe fixed) : 0
Drift error (maybe fixed) : 0
Dropped bytes error (maybe fixed) : 0
Duplicated bytes error (maybe fixed) : 0
Inconsistency in error sectors : 0

Track 02
Filename : /Users/omarshaukat/Desktop/Sunny Day Real Estate – LP2/02 Sunny Day Real Estate – Theo B.flac

CRC32 hash (test run) : 2EEBC9CD
CRC32 hash : 2EEBC9CD
CRC32 hash (skip zero) : 0C57437D
AccurateRip signature : C0994E9F
->Track not present in AccurateRip database.
Statistics
Read error : 0
Skipped (treated as error) : 0
Edge jitter error (maybe fixed) : 0
Atom jitter error (maybe fixed) : 0
Drift error (maybe fixed) : 0
Dropped bytes error (maybe fixed) : 0
Duplicated bytes error (maybe fixed) : 0
Inconsistency in error sectors : 0

Track 03
Filename : /Users/omarshaukat/Desktop/Sunny Day Real Estate – LP2/03 Sunny Day Real Estate – Red Elephant.flac

CRC32 hash (test run) : 3B571479
CRC32 hash : 3B571479
CRC32 hash (skip zero) : D8BE2BF2
AccurateRip signature : 55D5F11D
->Track not present in AccurateRip database.
Statistics
Read error : 0
Skipped (treated as error) : 0
Edge jitter error (maybe fixed) : 0
Atom jitter error (maybe fixed) : 0
Drift error (maybe fixed) : 0
Dropped bytes error (maybe fixed) : 0
Duplicated bytes error (maybe fixed) : 0
Inconsistency in error sectors : 0

Track 04
Filename : /Users/omarshaukat/Desktop/Sunny Day Real Estate – LP2/04 Sunny Day Real Estate – 5/4.flac

CRC32 hash (test run) : C07C3EC5
CRC32 hash : C07C3EC5
CRC32 hash (skip zero) : 49463C54
AccurateRip signature : 1B456E8C
->Track not present in AccurateRip database.
Statistics
Read error : 0
Skipped (treated as error) : 0
Edge jitter error (maybe fixed) : 0
Atom jitter error (maybe fixed) : 0
Drift error (maybe fixed) : 0
Dropped bytes error (maybe fixed) : 0
Duplicated bytes error (maybe fixed) : 0
Inconsistency in error sectors : 0

Track 05
Filename : /Users/omarshaukat/Desktop/Sunny Day Real Estate – LP2/05 Sunny Day Real Estate – Waffle.flac

CRC32 hash (test run) : 8FF6439E
CRC32 hash : 8FF6439E
CRC32 hash (skip zero) : E1F755DC
AccurateRip signature : 15B4190C
->Track not present in AccurateRip database.
Statistics
Read error : 0
Skipped (treated as error) : 0
Edge jitter error (maybe fixed) : 0
Atom jitter error (maybe fixed) : 0
Drift error (maybe fixed) : 0
Dropped bytes error (maybe fixed) : 0
Duplicated bytes error (maybe fixed) : 0
Inconsistency in error sectors : 0

Track 06
Filename : /Users/omarshaukat/Desktop/Sunny Day Real Estate – LP2/06 Sunny Day Real Estate – 8.flac

CRC32 hash (test run) : CD2564D7
CRC32 hash : CD2564D7
CRC32 hash (skip zero) : 7E71243D
AccurateRip signature : D8EBACBC
->Track not present in AccurateRip database.
Statistics
Read error : 0
Skipped (treated as error) : 0
Edge jitter error (maybe fixed) : 0
Atom jitter error (maybe fixed) : 0
Drift error (maybe fixed) : 0
Dropped bytes error (maybe fixed) : 0
Duplicated bytes error (maybe fixed) : 0
Inconsistency in error sectors : 0

Track 07
Filename : /Users/omarshaukat/Desktop/Sunny Day Real Estate – LP2/07 Sunny Day Real Estate – Iscarabaid.flac

CRC32 hash (test run) : 5739F92C
CRC32 hash : 5739F92C
CRC32 hash (skip zero) : 9F6AADCB
AccurateRip signature : B1366BA2
->Track not present in AccurateRip database.
Statistics
Read error : 0
Skipped (treated as error) : 0
Edge jitter error (maybe fixed) : 0
Atom jitter error (maybe fixed) : 0
Drift error (maybe fixed) : 0
Dropped bytes error (maybe fixed) : 0
Duplicated bytes error (maybe fixed) : 0
Inconsistency in error sectors : 0

Track 08
Filename : /Users/omarshaukat/Desktop/Sunny Day Real Estate – LP2/08 Sunny Day Real Estate – J’Nuh.flac

CRC32 hash (test run) : 47229F8B
CRC32 hash : 47229F8B
CRC32 hash (skip zero) : E53EF2C1
AccurateRip signature : AC4CF6C6
->Track not present in AccurateRip database.
Statistics
Read error : 0
Skipped (treated as error) : 0
Edge jitter error (maybe fixed) : 0
Atom jitter error (maybe fixed) : 0
Drift error (maybe fixed) : 0
Dropped bytes error (maybe fixed) : 0
Duplicated bytes error (maybe fixed) : 0
Inconsistency in error sectors : 0

Track 09
Filename : /Users/omarshaukat/Desktop/Sunny Day Real Estate – LP2/09 Sunny Day Real Estate – Rodeo Jones.flac

CRC32 hash (test run) : C7C42E00
CRC32 hash : C7C42E00
CRC32 hash (skip zero) : F67C923A
AccurateRip signature : 7C957CF1
->Track not present in AccurateRip database.
Statistics
Read error : 0
Skipped (treated as error) : 0
Edge jitter error (maybe fixed) : 0
Atom jitter error (maybe fixed) : 0
Drift error (maybe fixed) : 0
Dropped bytes error (maybe fixed) : 0
Duplicated bytes error (maybe fixed) : 0
Inconsistency in error sectors : 0

Track 10
Filename : /Users/omarshaukat/Desktop/Sunny Day Real Estate – LP2/10 Sunny Day Real Estate – Spade And Parade.flac

CRC32 hash (test run) : 7D29067D
CRC32 hash : 7D29067D
CRC32 hash (skip zero) : 9B3651D8
AccurateRip signature : BB6D77CC
->Track not present in AccurateRip database.
Statistics
Read error : 0
Skipped (treated as error) : 0
Edge jitter error (maybe fixed) : 0
Atom jitter error (maybe fixed) : 0
Drift error (maybe fixed) : 0
Dropped bytes error (maybe fixed) : 0
Duplicated bytes error (maybe fixed) : 0
Inconsistency in error sectors : 0

Track 11
Filename : /Users/omarshaukat/Desktop/Sunny Day Real Estate – LP2/11 Sunny Day Real Estate – Bucket Of Chicken.flac

CRC32 hash (test run) : 41B9C99F
CRC32 hash : 41B9C99F
CRC32 hash (skip zero) : 512EAD92
AccurateRip signature : 142E85CF
->Track not present in AccurateRip database.
Statistics
Read error : 0
Skipped (treated as error) : 0
Edge jitter error (maybe fixed) : 0
Atom jitter error (maybe fixed) : 0
Drift error (maybe fixed) : 0
Dropped bytes error (maybe fixed) : 0
Duplicated bytes error (maybe fixed) : 0
Inconsistency in error sectors : 0

No errors occurred

End of status report

TITLE “LP2 [remaster+2]”
PERFORMER “Sunny Day Real Estate”
REM GENRE “Alternative & Punk”
REM DATE 1995
FILE “01 – Friday.wav” WAVE
TRACK 01 AUDIO
TITLE “Friday”
INDEX 01 00:00:00
TRACK 02 AUDIO
TITLE “Theo B”
INDEX 00 02:29:05
FILE “02 – Theo B.wav” WAVE
INDEX 01 00:00:00
TRACK 03 AUDIO
TITLE “Red Elephant”
INDEX 00 03:03:34
FILE “03 – Red Elephant.wav” WAVE
INDEX 01 00:00:00
TRACK 04 AUDIO
TITLE “5/4”
INDEX 00 03:17:37
FILE “04 – 5,4.wav” WAVE
INDEX 01 00:00:00
TRACK 05 AUDIO
TITLE “Waffle”
INDEX 00 03:31:29
FILE “05 – Waffle.wav” WAVE
INDEX 01 00:00:00
TRACK 06 AUDIO
TITLE “8”
INDEX 00 04:23:21
FILE “06 – 8.wav” WAVE
INDEX 01 00:00:00
TRACK 07 AUDIO
TITLE “Iscarabaid”
INDEX 00 05:26:52
FILE “07 – Iscarabaid.wav” WAVE
INDEX 01 00:00:00
TRACK 08 AUDIO
TITLE “J’Nuh”
INDEX 00 04:46:52
FILE “08 – J’Nuh.wav” WAVE
INDEX 01 00:00:00
TRACK 09 AUDIO
TITLE “Rodeo Jones”
INDEX 00 04:47:50
FILE “09 – Rodeo Jones.wav” WAVE
INDEX 01 00:00:00
TRACK 10 AUDIO
TITLE “Spade And Parade”
INDEX 00 05:09:29
FILE “10 – Spade And Parade.wav” WAVE
INDEX 01 00:00:00
FILE “11 – Bucket Of Chicken.wav” WAVE
TRACK 11 AUDIO
TITLE “Bucket Of Chicken”
INDEX 01 00:00:00


Spread the Download

Leave a Reply

Your email address will not be published. Required fields are marked *

Enter the text from the image below
 

This site uses Akismet to reduce spam. Learn how your comment data is processed.