Sunny Day Real Estate – Live




Artist: Sunny Day Real Estate
Year: 1999
Genre: Rock
Notes: Discogs
Add. Notes:
Cover incl.: Yes
Encoder: FLAC
Bitrate: ~800 kBit/s (44.1 kHz/16 Bit/s)
Log & Cue incl.: Yes
Size: 404,62 MB
Password: “slam” (without ” “)


All Downloads/Hosters are compatible

Download 1
Turbobit.net
KatFile.com
Rapidgator.net
Download 2
Turbobit.net
KatFile.com
Rapidgator.net

Tracklist:

1 - Pillars - 5:01
2 - Guitar And Video Games - 4:18
3 - The Blankets Were The Stairs - 5:48
4 - 100 Million - 5:37
5 - Every Shining Time You Arrive - 4:31
6 - Song About An Angel - 6:21
7 - The Prophet - 6:02
8 - J'Nuh - 5:48
9 - Rodeo Jones - 5:08
10 - In Circles - 5:00
11 - Days Were Golden - 8:42

EAC-Log, CUE-Sheed & NFO:

Click to open spoiler
Exact Audio Copy V0.99 prebeta 5 from 4. May 2009

EAC extraction logfile from 20. January 2010, 20:39

Sunny Day Real Estate / Live

Used drive : PIONEER DVD-RW DVR-108 Adapter: 3 ID: 0

Read mode : Secure
Utilize accurate stream : Yes
Defeat audio cache : Yes
Make use of C2 pointers : No

Read offset correction : 48
Overread into Lead-In and Lead-Out : No
Fill up missing offset samples with silence : Yes
Delete leading and trailing silent blocks : No
Null samples used in CRC calculations : No
Used interface : Native Win32 interface for Win NT & 2000
Gap handling : Appended to previous track

Used output format : User Defined Encoder
Selected bitrate : 224 kBit/s
Quality : High
Add ID3 tag : No
Command line compressor : C:\Program Files (x86)\FLAC\flac.exe
Additional command line options : -T “artist=%a” -T “title=%t” -T “album=%g” -T “date=%y” -T “tracknumber=%n” -T “genre=%m” -5 %s

TOC of the extracted CD

Track | Start | Length | Start sector | End sector
———————————————————
1 | 0:00.00 | 5:01.13 | 0 | 22587
2 | 5:01.13 | 4:18.70 | 22588 | 42007
3 | 9:20.08 | 5:48.63 | 42008 | 68170
4 | 15:08.71 | 5:37.23 | 68171 | 93468
5 | 20:46.19 | 4:31.18 | 93469 | 113811
6 | 25:17.37 | 6:21.25 | 113812 | 142411
7 | 31:38.62 | 6:02.51 | 142412 | 169612
8 | 37:41.38 | 5:48.37 | 169613 | 195749
9 | 43:30.00 | 5:08.53 | 195750 | 218902
10 | 48:38.53 | 5:00.70 | 218903 | 241472
11 | 53:39.48 | 8:42.60 | 241473 | 280682

Track 1

Filename J:\_nobackup\incoming\_ripped\Sunny Day Real Estate – Live\01 Pillars – Sunny Day Real Estate.wav

Pre-gap length 0:00:02.00

Peak level 99.0 %
Track quality 99.9 %
Test CRC 6C35F948
Copy CRC 6C35F948
Accurately ripped (confidence 6) [E37E734B]
Copy OK

Track 2

Filename J:\_nobackup\incoming\_ripped\Sunny Day Real Estate – Live\02 Guitar And Video Games – Sunny Day Real Estate.wav

Peak level 99.7 %
Track quality 100.0 %
Test CRC CB37D4F0
Copy CRC CB37D4F0
Accurately ripped (confidence 6) [73E9DE89]
Copy OK

Track 3

Filename J:\_nobackup\incoming\_ripped\Sunny Day Real Estate – Live\03 The Blankets Were The Stairs – Sunny Day Real Estate.wav

Peak level 99.6 %
Track quality 100.0 %
Test CRC B534A705
Copy CRC B534A705
Accurately ripped (confidence 6) [E0A522C0]
Copy OK

Track 4

Filename J:\_nobackup\incoming\_ripped\Sunny Day Real Estate – Live\04 100 Million – Sunny Day Real Estate.wav

Peak level 99.7 %
Track quality 100.0 %
Test CRC 0F8ED6A8
Copy CRC 0F8ED6A8
Accurately ripped (confidence 6) [6C7D8B50]
Copy OK

Track 5

Filename J:\_nobackup\incoming\_ripped\Sunny Day Real Estate – Live\05 Every Shining Time You Arrive – Sunny Day Real Estate.wav

Peak level 99.7 %
Track quality 100.0 %
Test CRC C574EB76
Copy CRC C574EB76
Accurately ripped (confidence 6) [F4787F17]
Copy OK

Track 6

Filename J:\_nobackup\incoming\_ripped\Sunny Day Real Estate – Live\06 Song About An Angel – Sunny Day Real Estate.wav

Pre-gap length 0:00:00.01

Peak level 99.7 %
Track quality 100.0 %
Test CRC 116ADCBF
Copy CRC 116ADCBF
Accurately ripped (confidence 6) [4FD985A0]
Copy OK

Track 7

Filename J:\_nobackup\incoming\_ripped\Sunny Day Real Estate – Live\07 The Prophet – Sunny Day Real Estate.wav

Peak level 99.6 %
Track quality 100.0 %
Test CRC 83223329
Copy CRC 83223329
Accurately ripped (confidence 5) [386205FB]
Copy OK

Track 8

Filename J:\_nobackup\incoming\_ripped\Sunny Day Real Estate – Live\08 J’Nuh – Sunny Day Real Estate.wav

Pre-gap length 0:00:01.00

Peak level 99.7 %
Track quality 100.0 %
Test CRC 17AA3181
Copy CRC 17AA3181
Accurately ripped (confidence 6) [AC955A1F]
Copy OK

Track 9

Filename J:\_nobackup\incoming\_ripped\Sunny Day Real Estate – Live\09 Rodeo Jones – Sunny Day Real Estate.wav

Peak level 99.7 %
Track quality 100.0 %
Test CRC 2A5B86DD
Copy CRC 2A5B86DD
Accurately ripped (confidence 6) [A1EABA40]
Copy OK

Track 10

Filename J:\_nobackup\incoming\_ripped\Sunny Day Real Estate – Live\10 In Circles – Sunny Day Real Estate.wav

Peak level 99.7 %
Track quality 100.0 %
Test CRC B392CBAA
Copy CRC B392CBAA
Accurately ripped (confidence 6) [45BBD39E]
Copy OK

Track 11

Filename J:\_nobackup\incoming\_ripped\Sunny Day Real Estate – Live\11 Days Were Golden – Sunny Day Real Estate.wav

Peak level 99.6 %
Track quality 100.0 %
Test CRC C5A5B27D
Copy CRC C5A5B27D
Accurately ripped (confidence 6) [ECDE6199]
Copy OK

All tracks accurately ripped

No errors occurred

End of status report

REM GENRE Rock
REM DATE 1999
REM DISCID 750E9E0B
REM COMMENT “ExactAudioCopy v0.99pb5”
PERFORMER “Sunny Day Real Estate”
TITLE “Live”
FILE “01 – Pillars.wav” WAVE
TRACK 01 AUDIO
TITLE “Pillars”
PERFORMER “Sunny Day Real Estate”
INDEX 01 00:00:00
FILE “02 – Guitar And Video Games.wav” WAVE
TRACK 02 AUDIO
TITLE “Guitar And Video Games”
PERFORMER “Sunny Day Real Estate”
INDEX 01 00:00:00
FILE “03 – The Blankets Were The Stairs.wav” WAVE
TRACK 03 AUDIO
TITLE “The Blankets Were The Stairs”
PERFORMER “Sunny Day Real Estate”
INDEX 01 00:00:00
FILE “04 – 100 Million.wav” WAVE
TRACK 04 AUDIO
TITLE “100 Million”
PERFORMER “Sunny Day Real Estate”
INDEX 01 00:00:00
FILE “05 – Every Shining Time You Arrive.wav” WAVE
TRACK 05 AUDIO
TITLE “Every Shining Time You Arrive”
PERFORMER “Sunny Day Real Estate”
INDEX 01 00:00:00
TRACK 06 AUDIO
TITLE “Song About An Angel”
PERFORMER “Sunny Day Real Estate”
INDEX 00 04:31:17
FILE “06 – Song About An Angel.wav” WAVE
INDEX 01 00:00:00
FILE “07 – The Prophet.wav” WAVE
TRACK 07 AUDIO
TITLE “The Prophet”
PERFORMER “Sunny Day Real Estate”
INDEX 01 00:00:00
TRACK 08 AUDIO
TITLE “J’Nuh”
PERFORMER “Sunny Day Real Estate”
INDEX 00 06:01:51
FILE “08 – J’Nuh.wav” WAVE
INDEX 01 00:00:00
FILE “09 – Rodeo Jones.wav” WAVE
TRACK 09 AUDIO
TITLE “Rodeo Jones”
PERFORMER “Sunny Day Real Estate”
INDEX 01 00:00:00
FILE “10 – In Circles.wav” WAVE
TRACK 10 AUDIO
TITLE “In Circles”
PERFORMER “Sunny Day Real Estate”
INDEX 01 00:00:00
FILE “11 – Days Were Golden.wav” WAVE
TRACK 11 AUDIO
TITLE “Days Were Golden”
PERFORMER “Sunny Day Real Estate”
INDEX 01 00:00:00


Leave a Reply

Your email address will not be published. Required fields are marked *

Enter the text from the image below
 

This site uses Akismet to reduce spam. Learn how your comment data is processed.