Sunny Day Real Estate – How It Feels To Be Something On




Artist: Sunny Day Real Estate
Year: 1998
Genre: Rock
Notes: Discogs
Add. Notes:
Cover incl.: Yes
Encoder: FLAC
Bitrate: ~900 kBit/s (44.1 kHz/16 Bit/s)
Log & Cue incl.: Yes
Size: 305,02 MB
Password: “slam” (without ” “)


All Downloads/Hosters are compatible

Download 1
Turbobit.net
KatFile.com
Rapidgator.net
Download 2
Turbobit.net
KatFile.com
Rapidgator.net

Tracklist:

1 - Pillars - 5:13
2 - Roses In Water - 4:09
3 - Every Shining Time You Arrive - 4:03
4 - Two Promises - 5:08
5 - 100 Million - 4:57
6 - How It Feels To Be Something On - 3:42
7 - The Prophet - 4:13
8 - The Shark's Own Private Fuck - 5:38
9 - Guitar And Video Games - 4:39
10 - Days Were Golden - 3:57

EAC-Log, CUE-Sheed & NFO:

Click to open spoiler
Exact Audio Copy V0.99 prebeta 4 from 23. January 2008

EAC extraction logfile from 26. June 2008, 13:52

Sunny Day Real Estate / How It Feels To Be Something On

Used drive : ASUS DRW-1814BLT Adapter: 4 ID: 0

Read mode : Secure
Utilize accurate stream : Yes
Defeat audio cache : No
Make use of C2 pointers : No

Read offset correction : 6
Overread into Lead-In and Lead-Out : No
Fill up missing offset samples with silence : Yes
Delete leading and trailing silent blocks : No
Null samples used in CRC calculations : Yes
Used interface : Native Win32 interface for Win NT & 2000
Gap handling : Appended to previous track

Used output format : User Defined Encoder
Selected bitrate : 320 kBit/s
Quality : High
Add ID3 tag : No
Command line compressor : C:\Program\FLAC\flac.exe
Additional command line options : -V -8 -T \”artist=%a\” -T \”title=%t\” -T \”album=%g\” -T \”date=%y\” -T \”tracknumber=%n\” -T \”genre=%m\” %s

TOC of the extracted CD

Track | Start | Length | Start sector | End sector
———————————————————
1 | 0:00.32 | 4:57.05 | 32 | 22311
2 | 4:57.37 | 3:42.35 | 22312 | 38996
3 | 8:39.72 | 4:13.33 | 38997 | 58004
4 | 12:53.30 | 4:39.05 | 58005 | 78934
5 | 17:32.35 | 5:38.32 | 78935 | 104316
6 | 23:10.67 | 3:57.30 | 104317 | 122121
7 | 27:08.22 | 5:13.28 | 122122 | 145624
8 | 32:21.50 | 4:09.02 | 145625 | 164301
9 | 36:30.52 | 4:03.40 | 164302 | 182566
10 | 40:34.17 | 5:08.40 | 182567 | 205706

Track 1

Filename H:\Musik\S\Sunny Day Real Estate\Sunny Day Real Estate – 1998 – How It Feels To Be Something On\01 – Pillars.wav

Pre-gap length 0:00:02.42

Peak level 99.6 %
Track quality 99.8 %
Test CRC 5E72AC9E
Copy CRC 5E72AC9E
Accurately ripped (confidence 3) [0FDDA2E3]
Copy OK

Track 2

Filename H:\Musik\S\Sunny Day Real Estate\Sunny Day Real Estate – 1998 – How It Feels To Be Something On\02 – Roses In Water.wav

Pre-gap length 0:04:53.20

Peak level 98.6 %
Track quality 99.9 %
Test CRC 11ACD320
Copy CRC 11ACD320
Accurately ripped (confidence 3) [06B5C951]
Copy OK

Track 3

Filename H:\Musik\S\Sunny Day Real Estate\Sunny Day Real Estate – 1998 – How It Feels To Be Something On\03 – Every Shining Time You Arrive.wav

Pre-gap length 0:03:38.60

Peak level 98.3 %
Track quality 100.0 %
Test CRC 5D1C809E
Copy CRC 5D1C809E
Accurately ripped (confidence 3) [954BC22F]
Copy OK

Track 4

Filename H:\Musik\S\Sunny Day Real Estate\Sunny Day Real Estate – 1998 – How It Feels To Be Something On\04 – Two Promises.wav

Pre-gap length 0:04:09.57

Peak level 99.8 %
Track quality 100.0 %
Test CRC 973B4A0A
Copy CRC 973B4A0A
Accurately ripped (confidence 3) [08CB8223]
Copy OK

Track 5

Filename H:\Musik\S\Sunny Day Real Estate\Sunny Day Real Estate – 1998 – How It Feels To Be Something On\05 – 100 Million.wav

Pre-gap length 0:04:35.20

Peak level 99.0 %
Track quality 100.0 %
Test CRC 4EF96EBB
Copy CRC 4EF96EBB
Accurately ripped (confidence 3) [4DA789A5]
Copy OK

Track 6

Filename H:\Musik\S\Sunny Day Real Estate\Sunny Day Real Estate – 1998 – How It Feels To Be Something On\06 – How It Feels To Be Something On.wav

Peak level 98.8 %
Track quality 100.0 %
Test CRC BFD5C15E
Copy CRC BFD5C15E
Accurately ripped (confidence 3) [3D2A5B4F]
Copy OK

Track 7

Filename H:\Musik\S\Sunny Day Real Estate\Sunny Day Real Estate – 1998 – How It Feels To Be Something On\07 – The Prophet.wav

Peak level 96.7 %
Track quality 100.0 %
Test CRC 8CC56EA9
Copy CRC 8CC56EA9
Accurately ripped (confidence 3) [8B39372D]
Copy OK

Track 8

Filename H:\Musik\S\Sunny Day Real Estate\Sunny Day Real Estate – 1998 – How It Feels To Be Something On\08 – Guitar And Video Games.wav

Peak level 99.8 %
Track quality 99.9 %
Test CRC 4A368A3F
Copy CRC 4A368A3F
Accurately ripped (confidence 3) [063D98BF]
Copy OK

Track 9

Filename H:\Musik\S\Sunny Day Real Estate\Sunny Day Real Estate – 1998 – How It Feels To Be Something On\09 – The Shark’s Own Private Fuck.wav

Peak level 99.8 %
Track quality 100.0 %
Test CRC 85A0E77C
Copy CRC 85A0E77C
Accurately ripped (confidence 3) [D3366AEC]
Copy OK

Track 10

Filename H:\Musik\S\Sunny Day Real Estate\Sunny Day Real Estate – 1998 – How It Feels To Be Something On\10 – Days Were Golden.wav

Peak level 98.6 %
Track quality 100.0 %
Test CRC 8DB0C3FE
Copy CRC 8DB0C3FE
Accurately ripped (confidence 3) [B3BC1BB1]
Copy OK

All tracks accurately ripped

No errors occurred

End of status report

REM GENRE Rock
REM DATE 1998
REM DISCID 820AB60A
REM COMMENT “ExactAudioCopy v0.99pb4”
CATALOG 0000000000000
PERFORMER “Sunny Day Real Estate”
TITLE “How It Feels To Be Something On”
FILE “01 – Pillars.wav” WAVE
TRACK 01 AUDIO
TITLE “Pillars”
PERFORMER “Sunny Day Real Estate”
PREGAP 00:00:32
INDEX 01 00:00:00
TRACK 02 AUDIO
TITLE “Roses In Water”
PERFORMER “Sunny Day Real Estate”
INDEX 00 00:03:65
FILE “02 – Roses In Water.wav” WAVE
INDEX 01 00:00:00
TRACK 03 AUDIO
TITLE “Every Shining Time You Arrive”
PERFORMER “Sunny Day Real Estate”
INDEX 00 00:03:65
FILE “03 – Every Shining Time You Arrive.wav” WAVE
INDEX 01 00:00:00
TRACK 04 AUDIO
TITLE “Two Promises”
PERFORMER “Sunny Day Real Estate”
INDEX 00 00:03:65
FILE “04 – Two Promises.wav” WAVE
INDEX 01 00:00:00
TRACK 05 AUDIO
TITLE “100 Million”
PERFORMER “Sunny Day Real Estate”
INDEX 00 00:03:65
FILE “05 – 100 Million.wav” WAVE
INDEX 01 00:00:00
FILE “06 – How It Feels To Be Something On.wav” WAVE
TRACK 06 AUDIO
TITLE “How It Feels To Be Something On”
PERFORMER “Sunny Day Real Estate”
INDEX 01 00:00:00
FILE “07 – The Prophet.wav” WAVE
TRACK 07 AUDIO
TITLE “The Prophet”
PERFORMER “Sunny Day Real Estate”
INDEX 01 00:00:00
FILE “08 – Guitar And Video Games.wav” WAVE
TRACK 08 AUDIO
TITLE “Guitar And Video Games”
PERFORMER “Sunny Day Real Estate”
INDEX 01 00:00:00
FILE “09 – The Shark’s Own Private Fuck.wav” WAVE
TRACK 09 AUDIO
TITLE “The Shark’s Own Private Fuck”
PERFORMER “Sunny Day Real Estate”
INDEX 01 00:00:00
FILE “10 – Days Were Golden.wav” WAVE
TRACK 10 AUDIO
TITLE “Days Were Golden”
PERFORMER “Sunny Day Real Estate”
INDEX 01 00:00:00


0

Publication author

offline 12 hours

Chaos

3
Comments: 3Publics: 3189Registration: 02-02-2019
Spread the Download

Leave a Reply

Your email address will not be published. Required fields are marked *

Enter the text from the image below
 

This site uses Akismet to reduce spam. Learn how your comment data is processed.