Sunny Day Real Estate – Diary




Artist: Sunny Day Real Estate
Year: 1993
Genre: Rock
Notes: Discogs
Add. Notes:
Cover incl.: Yes
Encoder: FLAC
Bitrate: ~800 kBit/s (44.1 kHz/16 Bit/s)
Log & Cue incl.: Yes
Size: 353,89 MB
Password: “slam” (without ” “)


All Downloads/Hosters are compatible

Download 1
Turbobit.net
NitroFlare.com
KatFile.com
Rapidgator.net
Download 2
Turbobit.net
NitroFlare.com
KatFile.com
Rapidgator.net

Tracklist:

1 - Seven - 4:45
2 - In Circles - 4:58
3 - Song About An Angel - 6:13
4 - Round - 4:09
5 - 47 - 4:34
6 - The Blankets Were The Stairs - 5:27
7 - Pheurton Skeurto - 2:33
8 - Shadows - 4:46
9 - 48 - 4:46
10 - Grendel - 4:53
11 - Sometimes - 4:42

EAC-Log, CUE-Sheed & NFO:

Click to open spoiler
EAC extraction logfile from 10. June 2005, 19:42 for CD
Sunny Day Real Estate / Diary

Used drive : HL-DT-STDVD+RW GCA-4040N Adapter: 1 ID: 0
Read mode : Secure with NO C2, accurate stream, disable cache
Read offset correction : 48
Overread into Lead-In and Lead-Out : Yes

Used output format : C:\Program Files\FLAC\flac.exe (User Defined Encoder)
320 kBit/s
Additional command line options : -8 -V -T “artist=%a” -T “title=%t” -T “album=%g” -T “date=%y” -T “tracknumber=%n” -T “genre=%m” -T “comment=%e” %s

Other options :
Fill up missing offset samples with silence : Yes
Delete leading and trailing silent blocks : No
Installed external ASPI interface

Track 1
Filename E:\music\Albums\Lossless\[My Rips]\Sunny Day Real Estate – Diary\01 – Seven.wav

Pre-gap length 0:00:02.42

Peak level 98.8 %
Track quality 99.9 %
Test CRC 7AAC41D0
Copy CRC 7AAC41D0
Copy OK

Track 2
Filename E:\music\Albums\Lossless\[My Rips]\Sunny Day Real Estate – Diary\02 – In Circles.wav

Pre-gap length 0:00:00.29

Peak level 98.8 %
Track quality 99.9 %
Test CRC 4A5FF455
Copy CRC 4A5FF455
Copy OK

Track 3
Filename E:\music\Albums\Lossless\[My Rips]\Sunny Day Real Estate – Diary\03 – Song About An Angel.wav

Pre-gap length 0:00:00.46

Peak level 98.8 %
Track quality 99.9 %
Test CRC E64BBA5C
Copy CRC E64BBA5C
Copy OK

Track 4
Filename E:\music\Albums\Lossless\[My Rips]\Sunny Day Real Estate – Diary\04 – Round.wav

Pre-gap length 0:00:01.10

Peak level 98.9 %
Track quality 100.0 %
Test CRC BE770C00
Copy CRC BE770C00
Copy OK

Track 5
Filename E:\music\Albums\Lossless\[My Rips]\Sunny Day Real Estate – Diary\05 – 47.wav

Pre-gap length 0:00:01.04

Peak level 98.8 %
Track quality 99.9 %
Test CRC 670F5D91
Copy CRC 670F5D91
Copy OK

Track 6
Filename E:\music\Albums\Lossless\[My Rips]\Sunny Day Real Estate – Diary\06 – The Blankets Were The Stairs.wav

Pre-gap length 0:00:00.16

Peak level 98.8 %
Track quality 100.0 %
Test CRC A121A3B9
Copy CRC A121A3B9
Copy OK

Track 7
Filename E:\music\Albums\Lossless\[My Rips]\Sunny Day Real Estate – Diary\07 – Pheurton Skeurto.wav

Peak level 65.4 %
Track quality 100.0 %
Test CRC AC6F4508
Copy CRC AC6F4508
Copy OK

Track 8
Filename E:\music\Albums\Lossless\[My Rips]\Sunny Day Real Estate – Diary\08 – Shadows.wav

Pre-gap length 0:00:00.13

Peak level 98.8 %
Track quality 99.6 %
Test CRC 6AF0B33E
Copy CRC 6AF0B33E
Copy OK

Track 9
Filename E:\music\Albums\Lossless\[My Rips]\Sunny Day Real Estate – Diary\09 – 48.wav

Pre-gap length 0:00:00.06

Peak level 98.8 %
Track quality 99.7 %
Test CRC AD65FD38
Copy CRC AD65FD38
Copy OK

Track 10
Filename E:\music\Albums\Lossless\[My Rips]\Sunny Day Real Estate – Diary\10 – Grendel.wav

Pre-gap length 0:00:01.33

Peak level 98.8 %
Track quality 99.4 %
Test CRC F1706401
Copy CRC F1706401
Copy OK

Track 11
Filename E:\music\Albums\Lossless\[My Rips]\Sunny Day Real Estate – Diary\11 – Sometimes.wav

Pre-gap length 0:00:02.09

Peak level 98.9 %
Track quality 99.4 %
Test CRC 4BEFE157
Copy CRC 4BEFE157
Copy OK

No errors occured

End of status report

REM GENRE Rock
REM DATE 1993
REM DISCID 9A0C630B
REM COMMENT ExactAudioCopy v0.95b1
PERFORMER “Sunny Day Real Estate”
TITLE “Diary”
FILE “01 Seven.flac” WAVE
TRACK 01 AUDIO
TITLE “Seven”
PERFORMER “Sunny Day Real Estate”
PREGAP 00:00:32
INDEX 01 00:00:00
TRACK 02 AUDIO
TITLE “In Circles”
PERFORMER “Sunny Day Real Estate”
INDEX 00 04:45:23
FILE “02 In Circles.flac” WAVE
INDEX 01 00:00:00
TRACK 03 AUDIO
TITLE “Song About An Angel”
PERFORMER “Sunny Day Real Estate”
INDEX 00 04:58:15
FILE “03 Song About An Angel.flac” WAVE
INDEX 01 00:00:00
TRACK 04 AUDIO
TITLE “Round”
PERFORMER “Sunny Day Real Estate”
INDEX 00 06:12:65
FILE “04 Round.flac” WAVE
INDEX 01 00:00:00
TRACK 05 AUDIO
TITLE “47”
PERFORMER “Sunny Day Real Estate”
INDEX 00 04:08:07
FILE “05 47.flac” WAVE
INDEX 01 00:00:00
TRACK 06 AUDIO
TITLE “The Blankets Were The Stairs”
PERFORMER “Sunny Day Real Estate”
INDEX 00 04:34:15
FILE “06 The Blankets Were The Stairs.flac” WAVE
INDEX 01 00:00:00
FILE “07 Pheurton Skeurto.flac” WAVE
TRACK 07 AUDIO
TITLE “Pheurton Skeurto”
PERFORMER “Sunny Day Real Estate”
INDEX 01 00:00:00
TRACK 08 AUDIO
TITLE “Shadows”
PERFORMER “Sunny Day Real Estate”
INDEX 00 02:33:05
FILE “08 Shadows.flac” WAVE
INDEX 01 00:00:00
TRACK 09 AUDIO
TITLE “48”
PERFORMER “Sunny Day Real Estate”
INDEX 00 04:46:35
FILE “09 48.flac” WAVE
INDEX 01 00:00:00
TRACK 10 AUDIO
TITLE “Grendel”
PERFORMER “Sunny Day Real Estate”
INDEX 00 04:44:63
FILE “10 Grendel.flac” WAVE
INDEX 01 00:00:00
TRACK 11 AUDIO
TITLE “Sometimes”
PERFORMER “Sunny Day Real Estate”
INDEX 00 04:51:25
FILE “11 Sometimes.flac” WAVE
INDEX 01 00:00:00


Leave a Reply

Your email address will not be published. Required fields are marked *

Enter the text from the image below
 

This site uses Akismet to reduce spam. Learn how your comment data is processed.