Sunny Day Real Estate – Diary (Remastered)




[Total: 0    Average: 0/5]

Artist: Sunny Day Real Estate
Year: 1994/2009
Genre: Rock
Notes: Discogs
Add. Notes: Remastered
Cover incl.: Yes
Encoder: FLAC
Bitrate: ~1000 kBit/s (44.1 kHz/16 Bit/s)
Log & Cue incl.: Yes
Size: 433,89 MB
Password: “slam” (without ” “)


All Downloads/Hosters are compatible

Download 1
Share-online.biz
KatFile.com
Rapidgator.net
Download 2
Share-online.biz
KatFile.com
Rapidgator.net

Tracklist:

1 - Seven - 4:45
2 - In Circles - 4:58
3 - Song About An Angel - 6:13
4 - Round - 4:09
5 - 47 - 4:34
6 - The Blankets Were The Stairs - 5:27
7 - Pheurton Skeurto - 2:33
8 - Shadows - 4:46
9 - 48 - 4:46
10 - Grendel - 4:53
11 - Sometimes - 5:42
12 - 8 - 5:15
13 - 9 - 6:03

EAC-Log, CUE-Sheed & NFO:

Click to open spoiler
Exact Audio Copy V0.99 prebeta 3 from 28. July 2007

EAC extraction logfile from 29. September 2009, 20:09

Sunny Day Real Estate / Diary (2009 Remaster)

Used drive : TSSTcorpCDDVDW SH-S222L Adapter: 1 ID: 0

Read mode : Secure
Utilize accurate stream : Yes
Defeat audio cache : Yes
Make use of C2 pointers : No

Read offset correction : 6
Overread into Lead-In and Lead-Out : No
Fill up missing offset samples with silence : Yes
Delete leading and trailing silent blocks : No
Null samples used in CRC calculations : Yes
Used interface : Installed external ASPI interface
Gap handling : Appended to previous track

Used output format : User Defined Encoder
Selected bitrate : 256 kBit/s
Quality : High
Add ID3 tag : No
Command line compressor : C:\Program Files\FLAC\flac.exe
Additional command line options : -8 -A tukey(0.25) -A gauss(0.1875) -b 4096 -V -T “artist=%a” -T “title=%t” -T “album=%g” -T “date=%y” -T “tracknumber=%n” -T “genre=%m” %s –sector-align

TOC of the extracted CD

Track | Start | Length | Start sector | End sector
———————————————————
1 | 0:00.00 | 4:46.30 | 0 | 21479
2 | 4:46.30 | 4:58.28 | 21480 | 43857
3 | 9:44.58 | 6:13.65 | 43858 | 71897
4 | 15:58.48 | 4:08.70 | 71898 | 90567
5 | 20:07.43 | 4:34.26 | 90568 | 111143
6 | 24:41.69 | 5:27.25 | 111144 | 135693
7 | 30:09.19 | 2:32.64 | 135694 | 147157
8 | 32:42.08 | 4:46.27 | 147158 | 168634
9 | 37:28.35 | 4:45.30 | 168635 | 190039
10 | 42:13.65 | 4:53.23 | 190040 | 212037
11 | 47:07.13 | 5:47.31 | 212038 | 238093
12 | 52:54.44 | 5:15.18 | 238094 | 261736
13 | 58:09.62 | 6:03.06 | 261737 | 288967

Track 1

Filename I:\music\Sunny Day Real Estate – Diary (2009 Remaster) FLAC\01 – Seven.wav

Pre-gap length 0:00:02.00

Peak level 98.8 %
Track quality 100.0 %
Test CRC 233C44C7
Copy CRC 233C44C7
Track not present in AccurateRip database
Copy OK

Track 2

Filename I:\music\Sunny Day Real Estate – Diary (2009 Remaster) FLAC\02 – In Circles.wav

Peak level 98.8 %
Track quality 100.0 %
Test CRC EE12CB4A
Copy CRC EE12CB4A
Track not present in AccurateRip database
Copy OK

Track 3

Filename I:\music\Sunny Day Real Estate – Diary (2009 Remaster) FLAC\03 – Song About An Angel.wav

Pre-gap length 0:00:00.02

Peak level 98.8 %
Track quality 100.0 %
Test CRC 2A441EBF
Copy CRC 2A441EBF
Track not present in AccurateRip database
Copy OK

Track 4

Filename I:\music\Sunny Day Real Estate – Diary (2009 Remaster) FLAC\04 – Round.wav

Peak level 98.8 %
Track quality 100.0 %
Test CRC 0A196DB6
Copy CRC 0A196DB6
Track not present in AccurateRip database
Copy OK

Track 5

Filename I:\music\Sunny Day Real Estate – Diary (2009 Remaster) FLAC\05 – 47.wav

Peak level 98.8 %
Track quality 100.0 %
Test CRC E5E02587
Copy CRC E5E02587
Track not present in AccurateRip database
Copy OK

Track 6

Filename I:\music\Sunny Day Real Estate – Diary (2009 Remaster) FLAC\06 – The Blankets Were the Stairs.wav

Peak level 98.8 %
Track quality 100.0 %
Test CRC A3A9F383
Copy CRC A3A9F383
Track not present in AccurateRip database
Copy OK

Track 7

Filename I:\music\Sunny Day Real Estate – Diary (2009 Remaster) FLAC\07 – Pheurton Skeurto.wav

Pre-gap length 0:00:00.24

Peak level 81.9 %
Track quality 100.0 %
Test CRC 4CAB3F66
Copy CRC 4CAB3F66
Track not present in AccurateRip database
Copy OK

Track 8

Filename I:\music\Sunny Day Real Estate – Diary (2009 Remaster) FLAC\08 – Shadows.wav

Pre-gap length 0:00:00.08

Peak level 98.8 %
Track quality 100.0 %
Test CRC A45C8F99
Copy CRC A45C8F99
Track not present in AccurateRip database
Copy OK

Track 9

Filename I:\music\Sunny Day Real Estate – Diary (2009 Remaster) FLAC\09 – 48.wav

Peak level 98.8 %
Track quality 100.0 %
Test CRC 91603541
Copy CRC 91603541
Track not present in AccurateRip database
Copy OK

Track 10

Filename I:\music\Sunny Day Real Estate – Diary (2009 Remaster) FLAC\10 – Grendel.wav

Pre-gap length 0:00:01.50

Peak level 98.8 %
Track quality 100.0 %
Test CRC DD3A16E9
Copy CRC DD3A16E9
Track not present in AccurateRip database
Copy OK

Track 11

Filename I:\music\Sunny Day Real Estate – Diary (2009 Remaster) FLAC\11 – Sometimes.wav

Pre-gap length 0:00:01.24

Peak level 98.8 %
Track quality 100.0 %
Test CRC F1D5B0AD
Copy CRC F1D5B0AD
Track not present in AccurateRip database
Copy OK

Track 12

Filename I:\music\Sunny Day Real Estate – Diary (2009 Remaster) FLAC\12 – 8.wav

Pre-gap length 0:00:04.00

Peak level 98.8 %
Track quality 100.0 %
Test CRC F6F29799
Copy CRC F6F29799
Track not present in AccurateRip database
Copy OK

Track 13

Filename I:\music\Sunny Day Real Estate – Diary (2009 Remaster) FLAC\13 – 9.wav

Pre-gap length 0:00:04.67

Peak level 98.8 %
Track quality 100.0 %
Test CRC BBB5AB4F
Copy CRC BBB5AB4F
Track not present in AccurateRip database
Copy OK

None of the tracks are present in the AccurateRip database

No errors occurred

End of status report

REM GENRE emo/indie
REM DATE 2009
REM DISCID C00F0C0D
REM COMMENT “ExactAudioCopy v0.99pb3”
PERFORMER “Sunny Day Real Estate”
TITLE “Diary (2009 Remaster)”
FILE “01 – Seven.wav” WAVE
TRACK 01 AUDIO
TITLE “Seven”
PERFORMER “Sunny Day Real Estate”
INDEX 01 00:00:00
FILE “02 – In Circles.wav” WAVE
TRACK 02 AUDIO
TITLE “In Circles”
PERFORMER “Sunny Day Real Estate”
INDEX 01 00:00:00
TRACK 03 AUDIO
TITLE “Song About An Angel”
PERFORMER “Sunny Day Real Estate”
INDEX 00 04:58:26
FILE “03 – Song About An Angel.wav” WAVE
INDEX 01 00:00:00
FILE “04 – Round.wav” WAVE
TRACK 04 AUDIO
TITLE “Round”
PERFORMER “Sunny Day Real Estate”
INDEX 01 00:00:00
FILE “05 – 47.wav” WAVE
TRACK 05 AUDIO
TITLE “47”
PERFORMER “Sunny Day Real Estate”
INDEX 01 00:00:00
FILE “06 – The Blankets Were the Stairs.wav” WAVE
TRACK 06 AUDIO
TITLE “The Blankets Were the Stairs”
PERFORMER “Sunny Day Real Estate”
INDEX 01 00:00:00
TRACK 07 AUDIO
TITLE “Pheurton Skeurto”
PERFORMER “Sunny Day Real Estate”
INDEX 00 05:27:01
FILE “07 – Pheurton Skeurto.wav” WAVE
INDEX 01 00:00:00
TRACK 08 AUDIO
TITLE “Shadows”
PERFORMER “Sunny Day Real Estate”
INDEX 00 02:32:56
FILE “08 – Shadows.wav” WAVE
INDEX 01 00:00:00
FILE “09 – 48.wav” WAVE
TRACK 09 AUDIO
TITLE “48”
PERFORMER “Sunny Day Real Estate”
INDEX 01 00:00:00
TRACK 10 AUDIO
TITLE “Grendel”
PERFORMER “Sunny Day Real Estate”
INDEX 00 04:43:55
FILE “10 – Grendel.wav” WAVE
INDEX 01 00:00:00
TRACK 11 AUDIO
TITLE “Sometimes”
PERFORMER “Sunny Day Real Estate”
INDEX 00 04:51:74
FILE “11 – Sometimes.wav” WAVE
INDEX 01 00:00:00
TRACK 12 AUDIO
TITLE “8”
PERFORMER “Sunny Day Real Estate”
INDEX 00 05:43:31
FILE “12 – 8.wav” WAVE
INDEX 01 00:00:00
TRACK 13 AUDIO
TITLE “9”
PERFORMER “Sunny Day Real Estate”
INDEX 00 05:10:26
FILE “13 – 9.wav” WAVE
INDEX 01 00:00:00


Spread the Download

Leave a Reply

Your email address will not be published. Required fields are marked *

Enter the text from the image below
 

This site uses Akismet to reduce spam. Learn how your comment data is processed.