Sum 41 – Underclass Hero




Artist: Sum 41
Year: 2007
Genre: Punk
Notes: Discogs
Add. Notes:
Cover incl.: No
Encoder: FLAC
Bitrate: ~1000 kBit/s (44.1 kHz/16 Bit/s)
Log & Cue incl.: Yes
Size: 362,83 MB
Password: “slam” (without ” “)


All Downloads/Hosters are compatible

Download 1
Turbobit.net
Rapidgator.net
UploadEver.com
KatFile.com
UsersDrive.com
Download 2
Turbobit.net
Rapidgator.net
UploadEver.com
KatFile.com
UsersDrive.com
Download 3
Turbobit.net
Rapidgator.net
UploadEver.com
KatFile.com
UsersDrive.com

Tracklist:

1 - Underclass Hero - 3:14
2 - Walking Disaster - 4:46
3 - Speak Of The Devil - 3:58
4 - Dear Father - 3:52
5 - Count Your Last Blessings - 3:03
6 - Ma Poubelle - 0:55
7 - March Of The Dogs - 3:09
8 - The Jester - 2:48
9 - With Me - 4:51
10 - Pull The Curtain - 4:18
11 - King Of Contradiction - 1:40
12 - Best Of Me - 4:25
13 - Confusion And Frustration In Modern Times - 3:46
14 - So Long Goodbye - 3:01
15 - Look At Me - 4:03

EAC-Log, CUE-Sheed & NFO:

Click to open spoiler
EAC extraction logfile from 24. July 2007, 15:24 for CD
Sum 41 / Underclass Hero

Used drive : TSSTcorpCD/DVDW TS-H652L Adapter: 0 ID: 0
Read mode : Secure with NO C2, accurate stream, disable cache
Read offset correction : 6
Overread into Lead-In and Lead-Out : No

Used output format : C:\Program Files\Exact Audio Copy\FLAC\flac-1.1.4-win\bin\flac.exe (User Defined Encoder)
192 kBit/s
Additional command line options : -8 -A tukey(0.25) -A gauss(0.1875) -b 4096 -V -T “artist=%a” -T “title=%t” -T “album=%g” -T “date=%y” -T “tracknumber=%n” -T “genre=%m” %s –sector-align

Other options :
Fill up missing offset samples with silence : Yes
Delete leading and trailing silent blocks : No
Installed external ASPI interface

Track 1
Filename C:\Documents and Settings\HP_Administrator\Desktop\Marks Stuff\Music\Sum 41 – Underclass Hero (FLAC)\01 – Sum 41 – Underclass Hero.wav

Pre-gap length 0:00:02.00

Peak level 100.0 %
Track quality 100.0 %
Test CRC 08EDEB31
Copy CRC 08EDEB31
Copy OK

Track 2
Filename C:\Documents and Settings\HP_Administrator\Desktop\Marks Stuff\Music\Sum 41 – Underclass Hero (FLAC)\02 – Sum 41 – Walking Disaster.wav

Peak level 100.0 %
Track quality 100.0 %
Test CRC E21386B9
Copy CRC E21386B9
Copy OK

Track 3
Filename C:\Documents and Settings\HP_Administrator\Desktop\Marks Stuff\Music\Sum 41 – Underclass Hero (FLAC)\03 – Sum 41 – Speak Of The Devil.wav

Peak level 100.0 %
Track quality 100.0 %
Test CRC B2EBEFF9
Copy CRC B2EBEFF9
Copy OK

Track 4
Filename C:\Documents and Settings\HP_Administrator\Desktop\Marks Stuff\Music\Sum 41 – Underclass Hero (FLAC)\04 – Sum 41 – Dear Father.wav

Peak level 100.0 %
Track quality 100.0 %
Test CRC 8A4C9390
Copy CRC 8A4C9390
Copy OK

Track 5
Filename C:\Documents and Settings\HP_Administrator\Desktop\Marks Stuff\Music\Sum 41 – Underclass Hero (FLAC)\05 – Sum 41 – Count Your Last Blessings.wav

Peak level 100.0 %
Track quality 100.0 %
Test CRC 676FB87C
Copy CRC 676FB87C
Copy OK

Track 6
Filename C:\Documents and Settings\HP_Administrator\Desktop\Marks Stuff\Music\Sum 41 – Underclass Hero (FLAC)\06 – Sum 41 – Ma Poubelle.wav

Peak level 96.6 %
Track quality 100.0 %
Test CRC 77FDAFAA
Copy CRC 77FDAFAA
Copy OK

Track 7
Filename C:\Documents and Settings\HP_Administrator\Desktop\Marks Stuff\Music\Sum 41 – Underclass Hero (FLAC)\07 – Sum 41 – March Of The Dogs.wav

Peak level 100.0 %
Track quality 100.0 %
Test CRC 667C9EDE
Copy CRC 667C9EDE
Copy OK

Track 8
Filename C:\Documents and Settings\HP_Administrator\Desktop\Marks Stuff\Music\Sum 41 – Underclass Hero (FLAC)\08 – Sum 41 – The Jester.wav

Peak level 100.0 %
Track quality 100.0 %
Test CRC 08DF5023
Copy CRC 08DF5023
Copy OK

Track 9
Filename C:\Documents and Settings\HP_Administrator\Desktop\Marks Stuff\Music\Sum 41 – Underclass Hero (FLAC)\09 – Sum 41 – With Me.wav

Peak level 100.0 %
Track quality 100.0 %
Test CRC 67A415B8
Copy CRC 67A415B8
Copy OK

Track 10
Filename C:\Documents and Settings\HP_Administrator\Desktop\Marks Stuff\Music\Sum 41 – Underclass Hero (FLAC)\10 – Sum 41 – Pull The Curtain.wav

Peak level 100.0 %
Track quality 100.0 %
Test CRC A45935C5
Copy CRC A45935C5
Copy OK

Track 11
Filename C:\Documents and Settings\HP_Administrator\Desktop\Marks Stuff\Music\Sum 41 – Underclass Hero (FLAC)\11 – Sum 41 – King Of Contradiction.wav

Peak level 100.0 %
Track quality 100.0 %
Test CRC 3D7E430C
Copy CRC 3D7E430C
Copy OK

Track 12
Filename C:\Documents and Settings\HP_Administrator\Desktop\Marks Stuff\Music\Sum 41 – Underclass Hero (FLAC)\12 – Sum 41 – Best Of Me.wav

Peak level 100.0 %
Track quality 100.0 %
Test CRC 07CC7C26
Copy CRC 07CC7C26
Copy OK

Track 13
Filename C:\Documents and Settings\HP_Administrator\Desktop\Marks Stuff\Music\Sum 41 – Underclass Hero (FLAC)\13 – Sum 41 – Confusion And Frustration In Modern Times.wav

Peak level 100.0 %
Track quality 100.0 %
Test CRC A82A3636
Copy CRC A82A3636
Copy OK

Track 14
Filename C:\Documents and Settings\HP_Administrator\Desktop\Marks Stuff\Music\Sum 41 – Underclass Hero (FLAC)\14 – Sum 41 – So Long Goodbye.wav

Peak level 96.6 %
Track quality 99.9 %
Test CRC 52A8C5FE
Copy CRC 52A8C5FE
Copy OK

Track 15
Filename C:\Documents and Settings\HP_Administrator\Desktop\Marks Stuff\Music\Sum 41 – Underclass Hero (FLAC)\15 – Sum 41 – Look At Me [Hidden].wav

Peak level 96.6 %
Track quality 100.0 %
Test CRC 6203BB58
Copy CRC 6203BB58
Copy OK

No errors occured

End of status report

REM GENRE GRock
REM DATE 2007
REM DISCID C00C2C0F
REM COMMENT “ExactAudioCopy v0.95b3”
PERFORMER “Sum 41”
TITLE “Underclass Hero”
FILE “01 – Sum 41 – Underclass Hero.wav” WAVE
TRACK 01 AUDIO
TITLE “Underclass Hero”
PERFORMER “Sum 41”
INDEX 01 00:00:00
FILE “02 – Sum 41 – Walking Disaster.wav” WAVE
TRACK 02 AUDIO
TITLE “Walking Disaster”
PERFORMER “Sum 41”
INDEX 01 00:00:00
FILE “03 – Sum 41 – Speak Of The Devil.wav” WAVE
TRACK 03 AUDIO
TITLE “Speak Of The Devil”
PERFORMER “Sum 41”
INDEX 01 00:00:00
FILE “04 – Sum 41 – Dear Father.wav” WAVE
TRACK 04 AUDIO
TITLE “Dear Father”
PERFORMER “Sum 41”
INDEX 01 00:00:00
FILE “05 – Sum 41 – Count Your Last Blessings.wav” WAVE
TRACK 05 AUDIO
TITLE “Count Your Last Blessings”
PERFORMER “Sum 41”
INDEX 01 00:00:00
FILE “06 – Sum 41 – Ma Poubelle.wav” WAVE
TRACK 06 AUDIO
TITLE “Ma Poubelle”
PERFORMER “Sum 41”
INDEX 01 00:00:00
FILE “07 – Sum 41 – March Of The Dogs.wav” WAVE
TRACK 07 AUDIO
TITLE “March Of The Dogs”
PERFORMER “Sum 41”
INDEX 01 00:00:00
FILE “08 – Sum 41 – The Jester.wav” WAVE
TRACK 08 AUDIO
TITLE “The Jester”
PERFORMER “Sum 41”
INDEX 01 00:00:00
FILE “09 – Sum 41 – With Me.wav” WAVE
TRACK 09 AUDIO
TITLE “With Me”
PERFORMER “Sum 41”
INDEX 01 00:00:00
FILE “10 – Sum 41 – Pull The Curtain.wav” WAVE
TRACK 10 AUDIO
TITLE “Pull The Curtain”
PERFORMER “Sum 41”
INDEX 01 00:00:00
FILE “11 – Sum 41 – King Of Contradiction.wav” WAVE
TRACK 11 AUDIO
TITLE “King Of Contradiction”
PERFORMER “Sum 41”
INDEX 01 00:00:00
FILE “12 – Sum 41 – Best Of Me.wav” WAVE
TRACK 12 AUDIO
TITLE “Best Of Me”
PERFORMER “Sum 41”
INDEX 01 00:00:00
FILE “13 – Sum 41 – Confusion And Frustration In Modern Times.wav” WAVE
TRACK 13 AUDIO
TITLE “Confusion And Frustration In Modern Times”
PERFORMER “Sum 41”
INDEX 01 00:00:00
FILE “14 – Sum 41 – So Long Goodbye.wav” WAVE
TRACK 14 AUDIO
TITLE “So Long Goodbye”
PERFORMER “Sum 41”
INDEX 01 00:00:00
FILE “15 – Sum 41 – Look At Me [Hidden].wav” WAVE
TRACK 15 AUDIO
TITLE “Look At Me [Hidden]”
PERFORMER “Sum 41”
INDEX 01 00:00:00


Leave a Reply

Your email address will not be published. Required fields are marked *

This site uses Akismet to reduce spam. Learn how your comment data is processed.