Sum 41 – Half Hour Of Power




Artist: Sum 41
Year: 2000
Genre: Punk
Notes: Discogs
Add. Notes:
Cover incl.: No
Encoder: FLAC
Bitrate: ~1000 kBit/s (44.1 kHz/16 Bit/s)
Log & Cue incl.: Yes
Size: 198,26 MB
Password: “slam” (without ” “)


All Downloads/Hosters are compatible

Download 1
Turbobit.net
Rapidgator.net
KatFile.com
UploadRar.com
Download 2
Turbobit.net
Rapidgator.net
KatFile.com
UploadRar.com
Download 3
Turbobit.net
Rapidgator.net
KatFile.com
UploadRar.com

Tracklist:

1 - Grab The Devil By The Horns And Fuck Him Up The Ass - 1:07
2 - Machine Gun - 2:29
3 - What I Believe - 2:49
4 - T.H.T. - 0:43
5 - Makes No Difference - 3:10
6 - Summer - 2:40
7 - 32 Ways To Die - 1:29
8 - Second Chance For Max Headroom - 3:51
9 - Dave's Possessed Hair / It's What We're All About - 3:47
10 - Ride The Chariot To The Devil - 0:54
11 - Another Time Around - 3:22

EAC-Log, CUE-Sheed & NFO:

Click to open spoiler
EAC extraction logfile from 21. January 2007, 9:19 for CD
Sum 41 / Half Hour Of Power

Used drive : HL-DT-STDVD-ROM GDR8161B Adapter: 1 ID: 1
Read mode : Secure with NO C2, accurate stream, disable cache
Combined read/write offset correction : 0
Overread into Lead-In and Lead-Out : Yes

Used output format : C:\Program Files\FLAC\flac.exe (User Defined Encoder)
192 kBit/s
Additional command line options : -8 -A tukey(0.25) -A gauss(0.1875) -b 4096 -V -T “artist=%a” -T “title=%t” -T “album=%g” -T “date=%y” -T “tracknumber=%n” -T “genre=%m” %s –sector-align

Other options :
Fill up missing offset samples with silence : Yes
Delete leading and trailing silent blocks : No
Native Win32 interface for Win NT & 2000

Track 1
Filename C:\Audio Rips\Oink\Sum 41 – Half Hour Of Power\01 – Grab The Devil By The Horns And Fuck Him Up The Ass.wav

Pre-gap length 0:00:02.00

Peak level 93.6 %
Track quality 100.0 %
Test CRC B63C494C
Copy CRC B63C494C
Copy OK

Track 2
Filename C:\Audio Rips\Oink\Sum 41 – Half Hour Of Power\02 – Machine Gun.wav

Peak level 93.6 %
Track quality 100.0 %
Test CRC B3EB846E
Copy CRC B3EB846E
Copy OK

Track 3
Filename C:\Audio Rips\Oink\Sum 41 – Half Hour Of Power\03 – What I Believe.wav

Peak level 93.6 %
Track quality 100.0 %
Test CRC 5D90A205
Copy CRC 5D90A205
Copy OK

Track 4
Filename C:\Audio Rips\Oink\Sum 41 – Half Hour Of Power\04 – T.H.T..wav

Peak level 83.4 %
Track quality 100.0 %
Test CRC D3DCE2E9
Copy CRC D3DCE2E9
Copy OK

Track 5
Filename C:\Audio Rips\Oink\Sum 41 – Half Hour Of Power\05 – Makes No Difference.wav

Peak level 93.6 %
Track quality 100.0 %
Test CRC A362608A
Copy CRC A362608A
Copy OK

Track 6
Filename C:\Audio Rips\Oink\Sum 41 – Half Hour Of Power\06 – Summer.wav

Peak level 83.4 %
Track quality 100.0 %
Test CRC 5669CB71
Copy CRC 5669CB71
Copy OK

Track 7
Filename C:\Audio Rips\Oink\Sum 41 – Half Hour Of Power\07 – 32 Ways To Die.wav

Peak level 93.6 %
Track quality 100.0 %
Test CRC EBADB5A5
Copy CRC EBADB5A5
Copy OK

Track 8
Filename C:\Audio Rips\Oink\Sum 41 – Half Hour Of Power\08 – Second Chance For Max Headroom.wav

Peak level 94.6 %
Track quality 99.9 %
Test CRC 5C1F31FE
Copy CRC 5C1F31FE
Copy OK

Track 9
Filename C:\Audio Rips\Oink\Sum 41 – Half Hour Of Power\09 – Dave’s Possessed Hair,It’s What We’re All About.wav

Peak level 93.6 %
Track quality 100.0 %
Test CRC 2FB52BD6
Copy CRC 2FB52BD6
Copy OK

Track 10
Filename C:\Audio Rips\Oink\Sum 41 – Half Hour Of Power\10 – Ride The Chariot To The Devil.wav

Peak level 93.6 %
Track quality 100.0 %
Test CRC 72B3E3EB
Copy CRC 72B3E3EB
Copy OK

Track 11
Filename C:\Audio Rips\Oink\Sum 41 – Half Hour Of Power\11 – Another Time Around.wav

Peak level 88.3 %
Track quality 100.0 %
Test CRC 53840E12
Copy CRC 53840E12
Copy OK

No errors occured

End of status report

REM GENRE Rock
REM DATE 2001
REM DISCID 8607060B
REM COMMENT “ExactAudioCopy v0.95b4”
PERFORMER “Sum 41”
TITLE “Half Hour Of Power”
FILE “Sum 41 – Half Hour Of Power\01 – Grab The Devil By The Horns And Fuck Him Up The Ass.wav” WAVE
TRACK 01 AUDIO
TITLE “Grab The Devil By The Horns And Fuck Him Up The Ass”
PERFORMER “Sum 41”
INDEX 01 00:00:00
FILE “Sum 41 – Half Hour Of Power\02 – Machine Gun.wav” WAVE
TRACK 02 AUDIO
TITLE “Machine Gun”
PERFORMER “Sum 41”
INDEX 01 00:00:00
FILE “Sum 41 – Half Hour Of Power\03 – What I Believe.wav” WAVE
TRACK 03 AUDIO
TITLE “What I Believe”
PERFORMER “Sum 41”
ISRC USIR20000139
INDEX 01 00:00:00
FILE “Sum 41 – Half Hour Of Power\04 – T.H.T..wav” WAVE
TRACK 04 AUDIO
TITLE “T.H.T.”
PERFORMER “Sum 41”
INDEX 01 00:00:00
FILE “Sum 41 – Half Hour Of Power\05 – Makes No Difference.wav” WAVE
TRACK 05 AUDIO
TITLE “Makes No Difference”
PERFORMER “Sum 41”
ISRC USIR20000134
INDEX 01 00:00:00
FILE “Sum 41 – Half Hour Of Power\06 – Summer.wav” WAVE
TRACK 06 AUDIO
TITLE “Summer”
PERFORMER “Sum 41”
INDEX 01 00:00:00
FILE “Sum 41 – Half Hour Of Power\07 – 32 Ways To Die.wav” WAVE
TRACK 07 AUDIO
TITLE “32 Ways To Die”
PERFORMER “Sum 41”
INDEX 01 00:00:00
FILE “Sum 41 – Half Hour Of Power\08 – Second Chance For Max Headroom.wav” WAVE
TRACK 08 AUDIO
TITLE “Second Chance For Max Headroom”
PERFORMER “Sum 41”
INDEX 01 00:00:00
FILE “Sum 41 – Half Hour Of Power\09 – Dave’s Possessed Hair,It’s What We’re All About.wav” WAVE
TRACK 09 AUDIO
TITLE “Dave’s Possessed Hair/It’s What We’re All About”
PERFORMER “Sum 41”
INDEX 01 00:00:00
FILE “Sum 41 – Half Hour Of Power\10 – Ride The Chariot To The Devil.wav” WAVE
TRACK 10 AUDIO
TITLE “Ride The Chariot To The Devil”
PERFORMER “Sum 41”
INDEX 01 00:00:00
FILE “Sum 41 – Half Hour Of Power\11 – Another Time Around.wav” WAVE
TRACK 11 AUDIO
TITLE “Another Time Around”
PERFORMER “Sum 41”
INDEX 01 00:00:00


Leave a Reply

Your email address will not be published. Required fields are marked *

This site uses Akismet to reduce spam. Learn how your comment data is processed.