Sum 41 – Does This Look Infected?




Artist: Sum 41
Year: 2002
Genre: Punk
Notes: Discogs
Add. Notes:
Cover incl.: Yes
Encoder: FLAC
Bitrate: ~1000 kBit/s (44.1 kHz/16 Bit/s)
Log & Cue incl.: Yes
Size: 225,82 MB
Password: “slam” (without ” “)


All Downloads/Hosters are compatible

Download 1
Turbobit.net
Rapidgator.net
UploadEver.com
KatFile.com
UsersDrive.com
Download 2
Turbobit.net
Rapidgator.net
UploadEver.com
KatFile.com
UsersDrive.com
Download 3
Turbobit.net
Rapidgator.net
UploadEver.com
KatFile.com
UsersDrive.com

Tracklist:

1 - The Hell Song - 3:18
2 - Over My Head (Better Of Dead) - 2:29
3 - My Direction - 2:02
4 - Still Waiting - 2:38
5 - A.N.I.C. - 0:37
6 - No Brains - 2:46
7 - All Messed Up - 2:44
8 - Mr. Amsterdam - 2:56
9 - Thanks For Nothing - 3:04
10 - Hyper-Insomnia-Para-Condroid - 2:32
11 - Billy Spleen - 2:32
12 - Hooch - 3:28

EAC-Log, CUE-Sheed & NFO:

Click to open spoiler
AUDIOCHECKER v1.2 – by Dester – opdester@freemail.hu
~~~~~~~~~~~~~~~~~

01 -===- K:\Sum 41\2002 – Does This Look Infected\01_The_Hell_Song_.flac
Extracted successfully
Conclusion: This track looks like CDDA with probability 100%

02 -===- K:\Sum 41\2002 – Does This Look Infected\02_Over_My_Head_(Better_Off_Dead)_.flac
Extracted successfully
Conclusion: This track looks like CDDA with probability 100%

03 -===- K:\Sum 41\2002 – Does This Look Infected\03_My_Direction_.flac
Extracted successfully
Conclusion: This track looks like CDDA with probability 100%

04 -===- K:\Sum 41\2002 – Does This Look Infected\04_Still_Waiting_.flac
Extracted successfully
Conclusion: This track looks like CDDA with probability 100%

05 -===- K:\Sum 41\2002 – Does This Look Infected\05_A.N.I.C._.flac
Extracted successfully
Conclusion: This track looks like CDDA with probability 100%

06 -===- K:\Sum 41\2002 – Does This Look Infected\06_No_Brains_.flac
Extracted successfully
Conclusion: This track looks like CDDA with probability 100%

07 -===- K:\Sum 41\2002 – Does This Look Infected\07_All_Messed_Up_.flac
Extracted successfully
Conclusion: This track looks like CDDA with probability 100%

08 -===- K:\Sum 41\2002 – Does This Look Infected\08_Mr._Amsterdam_.flac
Extracted successfully
Conclusion: This track looks like CDDA with probability 100%

09 -===- K:\Sum 41\2002 – Does This Look Infected\09_Thanks_For_Nothing_.flac
Extracted successfully
Conclusion: This track looks like CDDA with probability 100%

10 -===- K:\Sum 41\2002 – Does This Look Infected\10_Hyper-insomnia-para-condrioid_.flac
Extracted successfully
Conclusion: This track looks like CDDA with probability 100%

11 -===- K:\Sum 41\2002 – Does This Look Infected\11_Billy_Spleen_.flac
Extracted successfully
Conclusion: This track looks like CDDA with probability 100%

12 -===- K:\Sum 41\2002 – Does This Look Infected\12_Hooch_.flac
Extracted successfully
Conclusion: This track looks like CDDA with probability 100%

REM GENRE Punk
REM DATE 2002
REM DISCID A007500C
REM COMMENT “ExactAudioCopy v0.95b4”
PERFORMER “Sum 41”
TITLE “Does this Look Infected?”
FILE “01 The Hell Song .wav” WAVE
TRACK 01 AUDIO
TITLE “The Hell Song”
PERFORMER “Sum 41”
INDEX 01 00:00:00
FILE “02 Over My Head (Better Off Dead) .wav” WAVE
TRACK 02 AUDIO
TITLE “Over My Head (Better Off Dead)”
PERFORMER “Sum 41”
INDEX 01 00:00:00
FILE “03 My Direction .wav” WAVE
TRACK 03 AUDIO
TITLE “My Direction”
PERFORMER “Sum 41”
INDEX 01 00:00:00
FILE “04 Still Waiting .wav” WAVE
TRACK 04 AUDIO
TITLE “Still Waiting”
PERFORMER “Sum 41”
INDEX 01 00:00:00
FILE “05 A.N.I.C. .wav” WAVE
TRACK 05 AUDIO
TITLE “A.N.I.C.”
PERFORMER “Sum 41”
INDEX 01 00:00:00
FILE “06 No Brains .wav” WAVE
TRACK 06 AUDIO
TITLE “No Brains”
PERFORMER “Sum 41”
INDEX 01 00:00:00
FILE “07 All Messed Up .wav” WAVE
TRACK 07 AUDIO
TITLE “All Messed Up”
PERFORMER “Sum 41”
INDEX 01 00:00:00
FILE “08 Mr. Amsterdam .wav” WAVE
TRACK 08 AUDIO
TITLE “Mr. Amsterdam”
PERFORMER “Sum 41”
INDEX 01 00:00:00
FILE “09 Thanks For Nothing .wav” WAVE
TRACK 09 AUDIO
TITLE “Thanks For Nothing”
PERFORMER “Sum 41”
INDEX 01 00:00:00
FILE “10 Hyper-insomnia-para-condrioid .wav” WAVE
TRACK 10 AUDIO
TITLE “Hyper-insomnia-para-condrioid”
PERFORMER “Sum 41”
INDEX 01 00:00:00
FILE “11 Billy Spleen .wav” WAVE
TRACK 11 AUDIO
TITLE “Billy Spleen”
PERFORMER “Sum 41”
INDEX 01 00:00:00
FILE “12 Hooch .wav” WAVE
TRACK 12 AUDIO
TITLE “Hooch”
PERFORMER “Sum 41”
INDEX 01 00:00:00


Leave a Reply

Your email address will not be published. Required fields are marked *

This site uses Akismet to reduce spam. Learn how your comment data is processed.