Sum 41 – Chuck




Artist: Sum 41
Year: 2004
Genre: Punk
Notes: Discogs
Add. Notes:
Cover incl.: Yes
Encoder: FLAC
Bitrate: ~1000 kBit/s (44.1 kHz/16 Bit/s)
Log & Cue incl.: Yes
Size: 276,9 MB
Password: “slam” (without ” “)


All Downloads/Hosters are compatible

Download 1
Turbobit.net
Rapidgator.net
KatFile.com
UploadRar.com
Download 2
Turbobit.net
Rapidgator.net
KatFile.com
UploadRar.com

Tracklist:

1 - Intro - 0:46
2 - No Reason - 3:04
3 - We're All To Blame - 3:38
4 - Angels With Dirty Faces - 2:23
5 - Some Say - 3:26
6 - The Bitter End - 2:51
7 - Open Your Eyes - 2:44
8 - Slipping Away - 2:29
9 - I'm Not The One - 3:34
10 - Welcome To Hell - 1:56
11 - Pieces - 3:01
12 - There's No Solution - 3:18
13 - 88 - 4:40

EAC-Log, CUE-Sheed & NFO:

Click to open spoiler
EAC extraction logfile from 12. May 2007, 20:36 for CD
Sum 41 / Chuck

Used drive : LITE-ON DVDRW SOHW-1213S Adapter: 1 ID: 0
Read mode : Burst
Read offset correction : 0
Overread into Lead-In and Lead-Out : No

Used output format : C:\Program Files\Exact Audio Copy\flac-1.1.4-win\bin\flac.exe (User Defined Encoder)
192 kBit/s
Additional command line options : -V -5 -T “artist=%a” -T “title=%t” -T “album=%g” -T “date=%y” -T “tracknumber=%n” -T “genre=%m” %s

Other options :
Fill up missing offset samples with silence : Yes
Delete leading and trailing silent blocks : No
Installed external ASPI interface

Track 1
Filename C:\Documents and Settings\Owner\My Documents\Torrent\OiNK Uploads\Sum 41- Chuck\01 – Intro.wav

Pre-gap length 0:00:02.00

Timing problem 0:00:31

Peak level 77.4 %
Test CRC D70BD36F
Copy CRC D70BD36F
Copy finished

Track 2
Filename C:\Documents and Settings\Owner\My Documents\Torrent\OiNK Uploads\Sum 41- Chuck\02 – No Reason.wav

Peak level 100.0 %
Test CRC A364365E
Copy CRC A364365E
Copy OK

Track 3
Filename C:\Documents and Settings\Owner\My Documents\Torrent\OiNK Uploads\Sum 41- Chuck\03 – We’re All To Blame.wav

Peak level 80.5 %
Test CRC F6A7F182
Copy CRC F6A7F182
Copy OK

Track 4
Filename C:\Documents and Settings\Owner\My Documents\Torrent\OiNK Uploads\Sum 41- Chuck\04 – Angels With Dirty Faces.wav

Peak level 99.9 %
Test CRC E9CC9293
Copy CRC E9CC9293
Copy OK

Track 5
Filename C:\Documents and Settings\Owner\My Documents\Torrent\OiNK Uploads\Sum 41- Chuck\05 – Some Say.wav

Pre-gap length 0:00:00.08

Peak level 99.9 %
Test CRC 73929AF7
Copy CRC 73929AF7
Copy OK

Track 6
Filename C:\Documents and Settings\Owner\My Documents\Torrent\OiNK Uploads\Sum 41- Chuck\06 – The Bitter End.wav

Timing problem 0:00:15
Timing problem 0:01:25

Peak level 97.4 %
Test CRC 33B67CBC
Copy CRC 33B67CBC
Copy finished

Track 7
Filename C:\Documents and Settings\Owner\My Documents\Torrent\OiNK Uploads\Sum 41- Chuck\07 – Open Your Eyes.wav

Peak level 98.8 %
Test CRC 76E71CB9
Copy CRC 76E71CB9
Copy OK

Track 8
Filename C:\Documents and Settings\Owner\My Documents\Torrent\OiNK Uploads\Sum 41- Chuck\08 – Slipping Away.wav

Peak level 98.8 %
Test CRC 49F4D44D
Copy CRC 49F4D44D
Copy OK

Track 9
Filename C:\Documents and Settings\Owner\My Documents\Torrent\OiNK Uploads\Sum 41- Chuck\09 – I’m Not The One.wav

Pre-gap length 0:00:01.36

Peak level 98.8 %
Test CRC 36D97D76
Copy CRC 36D97D76
Copy OK

Track 10
Filename C:\Documents and Settings\Owner\My Documents\Torrent\OiNK Uploads\Sum 41- Chuck\10 – Welcome To Hell.wav

Pre-gap length 0:00:00.61

Peak level 99.9 %
Test CRC E43C52B6
Copy CRC E43C52B6
Copy OK

Track 11
Filename C:\Documents and Settings\Owner\My Documents\Torrent\OiNK Uploads\Sum 41- Chuck\11 – Pieces.wav

Pre-gap length 0:00:00.48

Peak level 100.0 %
Test CRC CED58307
Copy CRC CED58307
Copy OK

Track 12
Filename C:\Documents and Settings\Owner\My Documents\Torrent\OiNK Uploads\Sum 41- Chuck\12 – There’s No Solution.wav

Pre-gap length 0:00:00.25

Peak level 98.8 %
Test CRC 6EAD7966
Copy CRC 6EAD7966
Copy OK

Track 13
Filename C:\Documents and Settings\Owner\My Documents\Torrent\OiNK Uploads\Sum 41- Chuck\13 – 88.wav

Peak level 92.7 %
Test CRC A60652E9
Copy CRC A60652E9
Copy OK

No errors occured

End of status report

————————————————————

EAC extraction logfile from 12. May 2007, 20:36 for CD
Sum 41 / Chuck

Used drive : LITE-ON DVDRW SOHW-1213S Adapter: 1 ID: 0
Read mode : Burst
Read offset correction : 0
Overread into Lead-In and Lead-Out : No

Used output format : C:\Program Files\Exact Audio Copy\flac-1.1.4-win\bin\flac.exe (User Defined Encoder)
192 kBit/s
Additional command line options : -V -5 -T “artist=%a” -T “title=%t” -T “album=%g” -T “date=%y” -T “tracknumber=%n” -T “genre=%m” %s

Other options :
Fill up missing offset samples with silence : Yes
Delete leading and trailing silent blocks : No
Installed external ASPI interface

Track 1
Filename C:\Documents and Settings\Owner\My Documents\Torrent\OiNK Uploads\Sum 41- Chuck\01 – Intro.wav

Pre-gap length 0:00:02.00

Timing problem 0:00:31

Peak level 77.4 %
Test CRC D70BD36F
Copy CRC D70BD36F
Copy finished

Track 2
Filename C:\Documents and Settings\Owner\My Documents\Torrent\OiNK Uploads\Sum 41- Chuck\02 – No Reason.wav

Peak level 100.0 %
Test CRC A364365E
Copy CRC A364365E
Copy OK

Track 3
Filename C:\Documents and Settings\Owner\My Documents\Torrent\OiNK Uploads\Sum 41- Chuck\03 – We’re All To Blame.wav

Peak level 80.5 %
Test CRC F6A7F182
Copy CRC F6A7F182
Copy OK

Track 4
Filename C:\Documents and Settings\Owner\My Documents\Torrent\OiNK Uploads\Sum 41- Chuck\04 – Angels With Dirty Faces.wav

Peak level 99.9 %
Test CRC E9CC9293
Copy CRC E9CC9293
Copy OK

Track 5
Filename C:\Documents and Settings\Owner\My Documents\Torrent\OiNK Uploads\Sum 41- Chuck\05 – Some Say.wav

Pre-gap length 0:00:00.08

Peak level 99.9 %
Test CRC 73929AF7
Copy CRC 73929AF7
Copy OK

Track 6
Filename C:\Documents and Settings\Owner\My Documents\Torrent\OiNK Uploads\Sum 41- Chuck\06 – The Bitter End.wav

Timing problem 0:00:15
Timing problem 0:01:25

Peak level 97.4 %
Test CRC 33B67CBC
Copy CRC 33B67CBC
Copy finished

Track 7
Filename C:\Documents and Settings\Owner\My Documents\Torrent\OiNK Uploads\Sum 41- Chuck\07 – Open Your Eyes.wav

Peak level 98.8 %
Test CRC 76E71CB9
Copy CRC 76E71CB9
Copy OK

Track 8
Filename C:\Documents and Settings\Owner\My Documents\Torrent\OiNK Uploads\Sum 41- Chuck\08 – Slipping Away.wav

Peak level 98.8 %
Test CRC 49F4D44D
Copy CRC 49F4D44D
Copy OK

Track 9
Filename C:\Documents and Settings\Owner\My Documents\Torrent\OiNK Uploads\Sum 41- Chuck\09 – I’m Not The One.wav

Pre-gap length 0:00:01.36

Peak level 98.8 %
Test CRC 36D97D76
Copy CRC 36D97D76
Copy OK

Track 10
Filename C:\Documents and Settings\Owner\My Documents\Torrent\OiNK Uploads\Sum 41- Chuck\10 – Welcome To Hell.wav

Pre-gap length 0:00:00.61

Peak level 99.9 %
Test CRC E43C52B6
Copy CRC E43C52B6
Copy OK

Track 11
Filename C:\Documents and Settings\Owner\My Documents\Torrent\OiNK Uploads\Sum 41- Chuck\11 – Pieces.wav

Pre-gap length 0:00:00.48

Peak level 100.0 %
Test CRC CED58307
Copy CRC CED58307
Copy OK

Track 12
Filename C:\Documents and Settings\Owner\My Documents\Torrent\OiNK Uploads\Sum 41- Chuck\12 – There’s No Solution.wav

Pre-gap length 0:00:00.25

Peak level 98.8 %
Test CRC 6EAD7966
Copy CRC 6EAD7966
Copy OK

Track 13
Filename C:\Documents and Settings\Owner\My Documents\Torrent\OiNK Uploads\Sum 41- Chuck\13 – 88.wav

Peak level 92.7 %
Test CRC A60652E9
Copy CRC A60652E9
Copy OK

No errors occured

End of status report

REM GENRE Punk
REM DATE 2004
REM DISCID AD08E30D
REM COMMENT “ExactAudioCopy v0.95b3”
PERFORMER “Sum 41”
TITLE “Chuck”
FILE “01 – Intro.wav” WAVE
TRACK 01 AUDIO
TITLE “Intro”
PERFORMER “Sum 41”
INDEX 01 00:00:00
FILE “02 – No Reason.wav” WAVE
TRACK 02 AUDIO
TITLE “No Reason”
PERFORMER “Sum 41”
INDEX 01 00:00:00
FILE “03 – We’re All To Blame.wav” WAVE
TRACK 03 AUDIO
TITLE “We’re All To Blame”
PERFORMER “Sum 41”
INDEX 01 00:00:00
FILE “04 – Angels With Dirty Faces.wav” WAVE
TRACK 04 AUDIO
TITLE “Angels With Dirty Faces”
PERFORMER “Sum 41”
INDEX 01 00:00:00
TRACK 05 AUDIO
TITLE “Some Say”
PERFORMER “Sum 41”
INDEX 00 02:23:17
FILE “05 – Some Say.wav” WAVE
INDEX 01 00:00:00
FILE “06 – The Bitter End.wav” WAVE
TRACK 06 AUDIO
TITLE “The Bitter End”
PERFORMER “Sum 41”
INDEX 01 00:00:00
FILE “07 – Open Your Eyes.wav” WAVE
TRACK 07 AUDIO
TITLE “Open Your Eyes”
PERFORMER “Sum 41”
INDEX 01 00:00:00
FILE “08 – Slipping Away.wav” WAVE
TRACK 08 AUDIO
TITLE “Slipping Away”
PERFORMER “Sum 41”
INDEX 01 00:00:00
TRACK 09 AUDIO
TITLE “I’m Not The One”
PERFORMER “Sum 41”
INDEX 00 02:28:05
FILE “09 – I’m Not The One.wav” WAVE
INDEX 01 00:00:00
TRACK 10 AUDIO
TITLE “Welcome To Hell”
PERFORMER “Sum 41”
INDEX 00 03:33:58
FILE “10 – Welcome To Hell.wav” WAVE
INDEX 01 00:00:00
TRACK 11 AUDIO
TITLE “Pieces”
PERFORMER “Sum 41”
INDEX 00 01:56:05
FILE “11 – Pieces.wav” WAVE
INDEX 01 00:00:00
TRACK 12 AUDIO
TITLE “There’s No Solution”
PERFORMER “Sum 41”
INDEX 00 03:01:49
FILE “12 – There’s No Solution.wav” WAVE
INDEX 01 00:00:00
FILE “13 – 88.wav” WAVE
TRACK 13 AUDIO
TITLE “88”
PERFORMER “Sum 41”
INDEX 01 00:00:00


Leave a Reply

Your email address will not be published. Required fields are marked *

This site uses Akismet to reduce spam. Learn how your comment data is processed.