Sum 41 – Chuck (Japanese Deluxe Edition)




Artist: Sum 41
Year: 2004
Genre: Hardcore
Notes: Discogs
Add. Notes: Japanese Deluxe Edition
Cover incl.: Yes
Encoder: FLAC
Bitrate: ~1000 kBit/s (44.1 kHz/16 Bit/s)
Log & Cue incl.: Yes
Size: 453,92 MB
Password: “slam” (without ” “)


All Downloads/Hosters are compatible

Download 1
Turbobit.net
Rapidgator.net
UploadEver.com
KatFile.com
UsersDrive.com
Download 2
Turbobit.net
Rapidgator.net
UploadEver.com
KatFile.com
UsersDrive.com
Download 3
Turbobit.net
Rapidgator.net
UploadEver.com
KatFile.com
UsersDrive.com

Tracklist:

1-1 - Intro - 0:46
1-2 - No Reason - 3:04
1-3 - We're All To Blame - 3:39
1-4 - Angels With Dirty Faces - 2:23
1-5 - Some Say - 3:26
1-6 - The Bitter End - 2:51
1-7 - Open Your Eyes - 2:44
1-8 - Slipping Away - 2:29
1-9 - I'm Not The One - 3:34
1-10 - Welcome To Hell - 1:56
1-11 - Pieces - 3:01
1-12 - There's No Solution - 3:18
1-13 - 88 - 4:39
1-14 - Noots - 3:51
1-15 - Moron - 2:00
1-16 - Subject To Change - 3:15
Bonus Disc
2-1 - Pieces (Acoustic) - 3:18
2-2 - No Brains (Acoustic) - 3:04
2-3 - Over My Head (Better Off Dead) (Acoustic) - 2:46
2-4 - Some Say (Acoustic) - 3:42
2-5 - There's No Solution (Acoustic) - 3:28

EAC-Log, CUE-Sheed & NFO:

Click to open spoiler
EAC extraction logfile from 15. September 2007, 2:03 for CD
Sum 41 / Chuck – TOUR EDITION

Used drive : SONY DVD RW DRU-830A Adapter: 0 ID: 0
Read mode : Secure with NO C2, accurate stream, disable cache
Read offset correction : 6
Overread into Lead-In and Lead-Out : No

Used output format : C:\Program Files\Exact Audio Copy\flac.exe (User Defined Encoder)
128 kBit/s
Additional command line options : -8 -A tukey(0.25) -A gauss(0.1875) -b 4096 -V -T “artist=%a” -T “title=%t” -T “album=%g” -T “date=%y” -T “tracknumber=%n” -T “genre=%m” %s –sector-align

Other options :
Fill up missing offset samples with silence : Yes
Delete leading and trailing silent blocks : No
Installed external ASPI interface

Track 1
Filename C:\Documents and Settings\Mitchell\Desktop\01 – Pieces (Acoustic).wav

Pre-gap length 0:00:02.00

Peak level 90.6 %
Track quality 100.0 %
Copy CRC F4C23275
Copy OK

Track 2
Filename C:\Documents and Settings\Mitchell\Desktop\02 – No Brains (Acoustic).wav

Pre-gap length 0:00:01.01

Peak level 100.0 %
Track quality 100.0 %
Copy CRC D9A8EE5A
Copy OK

Track 3
Filename C:\Documents and Settings\Mitchell\Desktop\03 – Over My Head (Better Off Dead) (Acoustic).wav

Pre-gap length 0:00:01.92

Peak level 100.0 %
Track quality 100.0 %
Copy CRC 2A9D82F2
Copy OK

Track 4
Filename C:\Documents and Settings\Mitchell\Desktop\04 – Some Say (Acoustic).wav

Pre-gap length 0:00:02.62

Peak level 100.0 %
Track quality 100.0 %
Copy CRC 98B768FB
Copy OK

Track 5
Filename C:\Documents and Settings\Mitchell\Desktop\05 – There’s No Solution (Acoustic).wav

Pre-gap length 0:00:00.21

Peak level 97.2 %
Track quality 100.0 %
Copy CRC 57C33F25
Copy OK

No errors occured

End of status report

EAC extraction logfile from 15. September 2007, 1:34 for CD
Sum 41 / Chuck [Bonus Tracks]

Used drive : SONY DVD RW DRU-830A Adapter: 0 ID: 0
Read mode : Secure with NO C2, accurate stream, disable cache
Read offset correction : 6
Overread into Lead-In and Lead-Out : No

Used output format : C:\Program Files\Exact Audio Copy\flac.exe (User Defined Encoder)
128 kBit/s
Additional command line options : -8 -A tukey(0.25) -A gauss(0.1875) -b 4096 -V -T “artist=%a” -T “title=%t” -T “album=%g” -T “date=%y” -T “tracknumber=%n” -T “genre=%m” %s –sector-align

Other options :
Fill up missing offset samples with silence : Yes
Delete leading and trailing silent blocks : No
Installed external ASPI interface

Track 1
Filename C:\Documents and Settings\Mitchell\Desktop\01 – Intro.wav

Pre-gap length 0:00:02.00

Peak level 84.1 %
Track quality 100.0 %
Copy CRC 7865C20D
Copy OK

Track 2
Filename C:\Documents and Settings\Mitchell\Desktop\02 – No Reason.wav

Peak level 100.0 %
Track quality 100.0 %
Copy CRC E6D98F6A
Copy OK

Track 3
Filename C:\Documents and Settings\Mitchell\Desktop\03 – We’re All To Blame.wav

Peak level 80.5 %
Track quality 99.9 %
Copy CRC 0FDC5E54
Copy OK

Track 4
Filename C:\Documents and Settings\Mitchell\Desktop\04 – Angels With Dirty Faces.wav

Peak level 99.9 %
Track quality 100.0 %
Copy CRC 6253521A
Copy OK

Track 5
Filename C:\Documents and Settings\Mitchell\Desktop\05 – Some Say.wav

Pre-gap length 0:00:00.10

Peak level 99.9 %
Track quality 100.0 %
Copy CRC D302829A
Copy OK

Track 6
Filename C:\Documents and Settings\Mitchell\Desktop\06 – The Bitter End.wav

Peak level 97.4 %
Track quality 100.0 %
Copy CRC F06A17C9
Copy OK

Track 7
Filename C:\Documents and Settings\Mitchell\Desktop\07 – Open Your Eyes.wav

Peak level 98.8 %
Track quality 100.0 %
Copy CRC 649A0DCA
Copy OK

Track 8
Filename C:\Documents and Settings\Mitchell\Desktop\08 – Slipping Away.wav

Peak level 98.8 %
Track quality 100.0 %
Copy CRC AB0BF1ED
Copy OK

Track 9
Filename C:\Documents and Settings\Mitchell\Desktop\09 – I’m Not The One.wav

Pre-gap length 0:00:01.48

Peak level 98.8 %
Track quality 100.0 %
Copy CRC 687F2D45
Copy OK

Track 10
Filename C:\Documents and Settings\Mitchell\Desktop\10 – Welcome To Hell.wav

Pre-gap length 0:00:00.81

Peak level 99.9 %
Track quality 100.0 %
Copy CRC 9F5A9A7D
Copy OK

Track 11
Filename C:\Documents and Settings\Mitchell\Desktop\11 – Pieces.wav

Pre-gap length 0:00:00.64

Peak level 100.0 %
Track quality 100.0 %
Copy CRC 9CECA3CF
Copy OK

Track 12
Filename C:\Documents and Settings\Mitchell\Desktop\12 – There’s No Solution.wav

Pre-gap length 0:00:00.33

Peak level 98.8 %
Track quality 99.9 %
Copy CRC 82758324
Copy OK

Track 13
Filename C:\Documents and Settings\Mitchell\Desktop\13 – 88.wav

Peak level 92.7 %
Track quality 100.0 %
Copy CRC 29D7FCA2
Copy OK

Track 14
Filename C:\Documents and Settings\Mitchell\Desktop\14 – Noots.wav

Pre-gap length 0:00:00.76

Peak level 98.8 %
Track quality 100.0 %
Copy CRC 5D169F8B
Copy OK

Track 15
Filename C:\Documents and Settings\Mitchell\Desktop\15 – Moron.wav

Pre-gap length 0:00:02.14

Peak level 98.8 %
Track quality 100.0 %
Copy CRC 9397E8C9
Copy OK

Track 16
Filename C:\Documents and Settings\Mitchell\Desktop\16 – Subject To Change.wav

Pre-gap length 0:00:02.00

Peak level 98.8 %
Track quality 100.0 %
Copy CRC D457D2D5
Copy OK

No errors occured

End of status report

REM GENRE Punk
REM DATE 2004
REM DISCID 3203D505
REM COMMENT “ExactAudioCopy v0.95b3”
PERFORMER “Sum 41”
TITLE “Chuck – TOUR EDITION”
FILE “01 – Pieces (Acoustic).wav” WAVE
TRACK 01 AUDIO
TITLE “Pieces (Acoustic)”
PERFORMER “Sum 41”
INDEX 01 00:00:00
TRACK 02 AUDIO
TITLE “No Brains (Acoustic)”
PERFORMER “Sum 41”
INDEX 00 03:17:61
FILE “02 – No Brains (Acoustic).wav” WAVE
INDEX 01 00:00:00
TRACK 03 AUDIO
TITLE “Over My Head (Better Off Dead) (Acoustic)”
PERFORMER “Sum 41”
INDEX 00 03:02:49
FILE “03 – Over My Head (Better Off Dead) (Acoustic).wav” WAVE
INDEX 01 00:00:00
TRACK 04 AUDIO
TITLE “Some Say (Acoustic)”
PERFORMER “Sum 41”
INDEX 00 02:44:13
FILE “04 – Some Say (Acoustic).wav” WAVE
INDEX 01 00:00:00
TRACK 05 AUDIO
TITLE “There’s No Solution (Acoustic)”
PERFORMER “Sum 41”
INDEX 00 03:42:06
FILE “05 – There’s No Solution (Acoustic).wav” WAVE
INDEX 01 00:00:00

REM GENRE Pop-Punk
REM DATE 2004
REM DISCID DB0B0710
REM COMMENT “ExactAudioCopy v0.95b3”
PERFORMER “Sum 41”
TITLE “Chuck [Bonus Tracks]”
FILE “01 – Intro.wav” WAVE
TRACK 01 AUDIO
TITLE “Intro”
PERFORMER “Sum 41”
INDEX 01 00:00:00
FILE “02 – No Reason.wav” WAVE
TRACK 02 AUDIO
TITLE “No Reason”
PERFORMER “Sum 41”
INDEX 01 00:00:00
FILE “03 – We’re All To Blame.wav” WAVE
TRACK 03 AUDIO
TITLE “We’re All To Blame”
PERFORMER “Sum 41”
INDEX 01 00:00:00
FILE “04 – Angels With Dirty Faces.wav” WAVE
TRACK 04 AUDIO
TITLE “Angels With Dirty Faces”
PERFORMER “Sum 41”
INDEX 01 00:00:00
TRACK 05 AUDIO
TITLE “Some Say”
PERFORMER “Sum 41”
INDEX 00 02:23:17
FILE “05 – Some Say.wav” WAVE
INDEX 01 00:00:00
FILE “06 – The Bitter End.wav” WAVE
TRACK 06 AUDIO
TITLE “The Bitter End”
PERFORMER “Sum 41”
INDEX 01 00:00:00
FILE “07 – Open Your Eyes.wav” WAVE
TRACK 07 AUDIO
TITLE “Open Your Eyes”
PERFORMER “Sum 41”
INDEX 01 00:00:00
FILE “08 – Slipping Away.wav” WAVE
TRACK 08 AUDIO
TITLE “Slipping Away”
PERFORMER “Sum 41”
INDEX 01 00:00:00
TRACK 09 AUDIO
TITLE “I’m Not The One”
PERFORMER “Sum 41”
INDEX 00 02:28:05
FILE “09 – I’m Not The One.wav” WAVE
INDEX 01 00:00:00
TRACK 10 AUDIO
TITLE “Welcome To Hell”
PERFORMER “Sum 41”
INDEX 00 03:33:58
FILE “10 – Welcome To Hell.wav” WAVE
INDEX 01 00:00:00
TRACK 11 AUDIO
TITLE “Pieces”
PERFORMER “Sum 41”
INDEX 00 01:56:05
FILE “11 – Pieces.wav” WAVE
INDEX 01 00:00:00
TRACK 12 AUDIO
TITLE “There’s No Solution”
PERFORMER “Sum 41”
INDEX 00 03:01:49
FILE “12 – There’s No Solution.wav” WAVE
INDEX 01 00:00:00
FILE “13 – 88.wav” WAVE
TRACK 13 AUDIO
TITLE “88”
PERFORMER “Sum 41”
INDEX 01 00:00:00
TRACK 14 AUDIO
TITLE “Noots”
PERFORMER “Sum 41”
INDEX 00 04:38:42
FILE “14 – Noots.wav” WAVE
INDEX 01 00:00:00
TRACK 15 AUDIO
TITLE “Moron”
PERFORMER “Sum 41”
INDEX 00 03:49:06
FILE “15 – Moron.wav” WAVE
INDEX 01 00:00:00
TRACK 16 AUDIO
TITLE “Subject To Change”
PERFORMER “Sum 41”
INDEX 00 01:58:04
FILE “16 – Subject To Change.wav” WAVE
INDEX 01 00:00:00


Leave a Reply

Your email address will not be published. Required fields are marked *

This site uses Akismet to reduce spam. Learn how your comment data is processed.