Sum 41 – All Killer No Filler (UK Edition)




Artist: Sum 41
Year: 2001
Genre: Punk
Notes: Discogs
Add. Notes: UK Edition
Cover incl.: Yes
Encoder: FLAC
Bitrate: ~1000 kBit/s (44.1 kHz/16 Bit/s)
Log & Cue incl.: Yes
Size: 376,26 MB
Password: “slam” (without ” “)


All Downloads/Hosters are compatible

Download 1
Turbobit.net
Rapidgator.net
KatFile.com
Download 2
Turbobit.net
Rapidgator.net
KatFile.com
Download 3
Turbobit.net
Rapidgator.net
KatFile.com

Tracklist:

1 - Introduction To Destruction - 0:37
2 - Nothing On My Back - 3:01
3 - Never Wake Up - 0:49
4 - Fat Lip - 2:58
5 - Rhythms - 2:58
6 - Motivation - 2:49
7 - In Too Deep - 3:27
8 - Summer - 2:49
9 - Handle This - 3:37
10 - Crazy Amanda Bunkface - 2:15
11 - All She's Got - 2:21
12 - Heart Attack - 2:48
13 - Pain For Pleasure - 1:45
14 - Makes No Difference - 3:10
Video1 - Fat Lip 
Video2 - Pain For Pleasure 
Video3 - Cutting Room Floor

EAC-Log, CUE-Sheed & NFO:

Click to open spoiler
EAC extraction logfile from 13. August 2007, 16:36 for CD
Sum 41 / All Killer No Filler (UK Version)

Used drive : PIONEER DVD-RW DVR-111D Adapter: 0 ID: 0
Read mode : Secure with NO C2, accurate stream, disable cache
Read offset correction : 48
Overread into Lead-In and Lead-Out : No

Used output format : C:\Program Files\Exact Audio Copy\flac.exe (User Defined Encoder)
192 kBit/s
Additional command line options : -8 -A tukey(0.25) -A gauss(0.1875) -b 4096 -V -T “artist=%a” -T “title=%t” -T “album=%g” -T “date=%y” -T “tracknumber=%n” -T “genre=%m” %s –sector-align

Other options :
Fill up missing offset samples with silence : Yes
Delete leading and trailing silent blocks : No
Installed external ASPI interface

Track 1
Filename E:\music\Albums\Lossless\[My Rips]\Sum 41 – All Killer No Filler (UK Version) (2001) [FLAC]\01 – Introduction To Destruction.wav

Pre-gap length 0:00:02.00

Peak level 81.8 %
Track quality 99.7 %
Test CRC F31CCD56
Copy CRC F31CCD56
Copy OK

Track 2
Filename E:\music\Albums\Lossless\[My Rips]\Sum 41 – All Killer No Filler (UK Version) (2001) [FLAC]\02 – Nothing On My Back.wav

Peak level 98.8 %
Track quality 100.0 %
Test CRC CA9CD4FD
Copy CRC CA9CD4FD
Copy OK

Track 3
Filename E:\music\Albums\Lossless\[My Rips]\Sum 41 – All Killer No Filler (UK Version) (2001) [FLAC]\03 – Never Wake Up.wav

Peak level 98.8 %
Track quality 100.0 %
Test CRC 19AF5573
Copy CRC 19AF5573
Copy OK

Track 4
Filename E:\music\Albums\Lossless\[My Rips]\Sum 41 – All Killer No Filler (UK Version) (2001) [FLAC]\04 – Fat Lip.wav

Peak level 98.8 %
Track quality 99.9 %
Test CRC 7CA111A2
Copy CRC 7CA111A2
Copy OK

Track 5
Filename E:\music\Albums\Lossless\[My Rips]\Sum 41 – All Killer No Filler (UK Version) (2001) [FLAC]\05 – Rhythms.wav

Peak level 98.8 %
Track quality 100.0 %
Test CRC 091285C1
Copy CRC 091285C1
Copy OK

Track 6
Filename E:\music\Albums\Lossless\[My Rips]\Sum 41 – All Killer No Filler (UK Version) (2001) [FLAC]\06 – Motivation.wav

Peak level 98.8 %
Track quality 100.0 %
Test CRC B19C73C8
Copy CRC B19C73C8
Copy OK

Track 7
Filename E:\music\Albums\Lossless\[My Rips]\Sum 41 – All Killer No Filler (UK Version) (2001) [FLAC]\07 – In Too Deep.wav

Peak level 98.8 %
Track quality 99.9 %
Test CRC 4D46F396
Copy CRC 4D46F396
Copy OK

Track 8
Filename E:\music\Albums\Lossless\[My Rips]\Sum 41 – All Killer No Filler (UK Version) (2001) [FLAC]\08 – Summer.wav

Peak level 98.8 %
Track quality 99.9 %
Test CRC 028945AB
Copy CRC 028945AB
Copy OK

Track 9
Filename E:\music\Albums\Lossless\[My Rips]\Sum 41 – All Killer No Filler (UK Version) (2001) [FLAC]\09 – Handle This.wav

Peak level 98.8 %
Track quality 100.0 %
Test CRC 146842A2
Copy CRC 146842A2
Copy OK

Track 10
Filename E:\music\Albums\Lossless\[My Rips]\Sum 41 – All Killer No Filler (UK Version) (2001) [FLAC]\10 – Crazy Amanda Bunkface.wav

Peak level 98.8 %
Track quality 99.9 %
Test CRC 6A187B2D
Copy CRC 6A187B2D
Copy OK

Track 11
Filename E:\music\Albums\Lossless\[My Rips]\Sum 41 – All Killer No Filler (UK Version) (2001) [FLAC]\11 – All She’s Got.wav

Peak level 98.8 %
Track quality 100.0 %
Test CRC B0282307
Copy CRC B0282307
Copy OK

Track 12
Filename E:\music\Albums\Lossless\[My Rips]\Sum 41 – All Killer No Filler (UK Version) (2001) [FLAC]\12 – Heart Attack.wav

Peak level 98.8 %
Track quality 99.9 %
Test CRC 71AD9298
Copy CRC 71AD9298
Copy OK

Track 13
Filename E:\music\Albums\Lossless\[My Rips]\Sum 41 – All Killer No Filler (UK Version) (2001) [FLAC]\13 – Pain For Pleasure.wav

Peak level 98.8 %
Track quality 100.0 %
Test CRC E67271C8
Copy CRC E67271C8
Copy OK

Track 14
Filename E:\music\Albums\Lossless\[My Rips]\Sum 41 – All Killer No Filler (UK Version) (2001) [FLAC]\14 – Makes No Difference (UK Bonus Track).wav

Peak level 83.5 %
Track quality 100.0 %
Test CRC E70DF5C0
Copy CRC E70DF5C0
Copy OK

No errors occured

End of status report

REM GENRE Rock
REM DATE 2001
REM DISCID CB0EB30F
REM COMMENT “ExactAudioCopy v0.95b4”
PERFORMER “Sum 41”
TITLE “All Killer No Filler (UK Version)”
FILE “01 – Introduction To Destruction.wav” WAVE
TRACK 01 AUDIO
TITLE “Introduction To Destruction”
PERFORMER “Sum 41”
INDEX 01 00:00:00
FILE “02 – Nothing On My Back.wav” WAVE
TRACK 02 AUDIO
TITLE “Nothing On My Back”
PERFORMER “Sum 41”
INDEX 01 00:00:00
FILE “03 – Never Wake Up.wav” WAVE
TRACK 03 AUDIO
TITLE “Never Wake Up”
PERFORMER “Sum 41”
INDEX 01 00:00:00
FILE “04 – Fat Lip.wav” WAVE
TRACK 04 AUDIO
TITLE “Fat Lip”
PERFORMER “Sum 41”
INDEX 01 00:00:00
FILE “05 – Rhythms.wav” WAVE
TRACK 05 AUDIO
TITLE “Rhythms”
PERFORMER “Sum 41”
INDEX 01 00:00:00
FILE “06 – Motivation.wav” WAVE
TRACK 06 AUDIO
TITLE “Motivation”
PERFORMER “Sum 41”
INDEX 01 00:00:00
FILE “07 – In Too Deep.wav” WAVE
TRACK 07 AUDIO
TITLE “In Too Deep”
PERFORMER “Sum 41”
INDEX 01 00:00:00
FILE “08 – Summer.wav” WAVE
TRACK 08 AUDIO
TITLE “Summer”
PERFORMER “Sum 41”
INDEX 01 00:00:00
FILE “09 – Handle This.wav” WAVE
TRACK 09 AUDIO
TITLE “Handle This”
PERFORMER “Sum 41”
INDEX 01 00:00:00
FILE “10 – Crazy Amanda Bunkface.wav” WAVE
TRACK 10 AUDIO
TITLE “Crazy Amanda Bunkface”
PERFORMER “Sum 41”
INDEX 01 00:00:00
FILE “11 – All She’s Got.wav” WAVE
TRACK 11 AUDIO
TITLE “All She’s Got”
PERFORMER “Sum 41”
INDEX 01 00:00:00
FILE “12 – Heart Attack.wav” WAVE
TRACK 12 AUDIO
TITLE “Heart Attack”
PERFORMER “Sum 41”
INDEX 01 00:00:00
FILE “13 – Pain For Pleasure.wav” WAVE
TRACK 13 AUDIO
TITLE “Pain For Pleasure”
PERFORMER “Sum 41”
INDEX 01 00:00:00
FILE “14 – Makes No Difference (UK Bonus Track).wav” WAVE
TRACK 14 AUDIO
TITLE “Makes No Difference (UK Bonus Track)”
PERFORMER “Sum 41”
INDEX 01 00:00:00
TRACK 15 MODEx/2xxx
TITLE “Data”
PERFORMER “Sum 41”
INDEX 00 03:09:40


Leave a Reply

Your email address will not be published. Required fields are marked *

This site uses Akismet to reduce spam. Learn how your comment data is processed.