Sum 41 – All Killer No Filler (US Edition)




Artist: Sum 41
Year: 2001
Genre: Punk
Notes: Discogs
Add. Notes: US Edition
Cover incl.: No
Encoder: FLAC
Bitrate: ~1100 kBit/s (44.1 kHz/16 Bit/s)
Log & Cue incl.: Yes
Size: 242,58 MB
Password: “slam” (without ” “)


All Downloads/Hosters are compatible

Download 1
Turbobit.net
Rapidgator.net
KatFile.com
UploadRar.com
Download 2
Turbobit.net
Rapidgator.net
KatFile.com
UploadRar.com
Download 3
Turbobit.net
Rapidgator.net
KatFile.com
UploadRar.com

Tracklist:

1. Introduction To Destruction. 0:37
2. Nothing On My Back. 3:01
3. Never Wake Up. 0:49
4. Fat Lip. 2:58
5. Rhythms. 2:58
6. Motivation. 2:49
7. In Too Deep. 3:27
8. Summer. 2:49
9. Handle This. 3:37
10. Crazy Amanda Bunkface. 2:15
11. All She's Got. 2:21
12. Heart Attack. 2:48
13. Pain For Pleasure. 1:45

EAC-Log, CUE-Sheed & NFO:

Click to open spoiler
EAC extraction logfile from 9. February 2007, 22:37 for CD
Sum 41 / All Killer No Filler

Used drive : HL-DT-STDVDRAM GSA-4084N Adapter: 0 ID: 0
Read mode : Secure with NO C2, accurate stream, disable cache
Read offset correction : 667
Overread into Lead-In and Lead-Out : No

Used output format : C:\Program Files\Exact Audio Copy\flac.exe (User Defined Encoder)
192 kBit/s
Additional command line options : -8 -A tukey(0.25) -A gauss(0.1875) -b 4096 -V -T “artist=%a” -T “title=%t” -T “album=%g” -T “date=%y” -T “tracknumber=%n” -T “genre=%m” %s –sector-align

Other options :
Fill up missing offset samples with silence : Yes
Delete leading and trailing silent blocks : No
Installed external ASPI interface

Track 1
Filename C:\Documents and Settings\Danny\My Documents\CD Rips\Sum 41 – All Killer No Filler\01 – Sum 41 – Introduction To Destruction.wav

Pre-gap length 0:00:02.00

Peak level 81.8 %
Track quality 100.0 %
Test CRC 4B34889E
Copy CRC 4B34889E
Copy OK

Track 2
Filename C:\Documents and Settings\Danny\My Documents\CD Rips\Sum 41 – All Killer No Filler\02 – Sum 41 – Nothing On My Back.wav

Peak level 98.8 %
Track quality 100.0 %
Test CRC 9CA23278
Copy CRC 9CA23278
Copy OK

Track 3
Filename C:\Documents and Settings\Danny\My Documents\CD Rips\Sum 41 – All Killer No Filler\03 – Sum 41 – Never Wake Up.wav

Peak level 98.8 %
Track quality 100.0 %
Test CRC 79ECED2F
Copy CRC 79ECED2F
Copy OK

Track 4
Filename C:\Documents and Settings\Danny\My Documents\CD Rips\Sum 41 – All Killer No Filler\04 – Sum 41 – Fat Lip.wav

Peak level 98.8 %
Track quality 100.0 %
Test CRC 02EB2E78
Copy CRC 02EB2E78
Copy OK

Track 5
Filename C:\Documents and Settings\Danny\My Documents\CD Rips\Sum 41 – All Killer No Filler\05 – Sum 41 – Rhythms.wav

Peak level 98.8 %
Track quality 100.0 %
Test CRC 20341DFC
Copy CRC 20341DFC
Copy OK

Track 6
Filename C:\Documents and Settings\Danny\My Documents\CD Rips\Sum 41 – All Killer No Filler\06 – Sum 41 – Motivation.wav

Peak level 98.8 %
Track quality 100.0 %
Test CRC 471A37C6
Copy CRC 471A37C6
Copy OK

Track 7
Filename C:\Documents and Settings\Danny\My Documents\CD Rips\Sum 41 – All Killer No Filler\07 – Sum 41 – In Too Deep.wav

Peak level 98.8 %
Track quality 100.0 %
Test CRC 2A7D68DC
Copy CRC 2A7D68DC
Copy OK

Track 8
Filename C:\Documents and Settings\Danny\My Documents\CD Rips\Sum 41 – All Killer No Filler\08 – Sum 41 – Summer.wav

Peak level 98.8 %
Track quality 100.0 %
Test CRC CC873AE3
Copy CRC CC873AE3
Copy OK

Track 9
Filename C:\Documents and Settings\Danny\My Documents\CD Rips\Sum 41 – All Killer No Filler\09 – Sum 41 – Handle This.wav

Peak level 98.8 %
Track quality 100.0 %
Test CRC C05BB265
Copy CRC C05BB265
Copy OK

Track 10
Filename C:\Documents and Settings\Danny\My Documents\CD Rips\Sum 41 – All Killer No Filler\10 – Sum 41 – Crazy Amanda Bunkface.wav

Peak level 98.8 %
Track quality 100.0 %
Test CRC 15691352
Copy CRC 15691352
Copy OK

Track 11
Filename C:\Documents and Settings\Danny\My Documents\CD Rips\Sum 41 – All Killer No Filler\11 – Sum 41 – All She’s Got.wav

Peak level 98.8 %
Track quality 100.0 %
Test CRC C4F01C54
Copy CRC C4F01C54
Copy OK

Track 12
Filename C:\Documents and Settings\Danny\My Documents\CD Rips\Sum 41 – All Killer No Filler\12 – Sum 41 – Heart Attack.wav

Peak level 98.8 %
Track quality 100.0 %
Test CRC A1063AF0
Copy CRC A1063AF0
Copy OK

Track 13
Filename C:\Documents and Settings\Danny\My Documents\CD Rips\Sum 41 – All Killer No Filler\13 – Sum 41 – Pain For Pleasure.wav

Peak level 98.8 %
Track quality 99.8 %
Test CRC 104CFCBF
Copy CRC 104CFCBF
Copy OK

No errors occured

End of status report

REM GENRE “Punk Rock”
REM DATE 2001
REM DISCID BE0B820E
REM COMMENT “ExactAudioCopy v0.95b3”
PERFORMER “Sum 41”
TITLE “All Killer No Filler”
FILE “01 – Sum 41 – Introduction To Destruction.wav” WAVE
TRACK 01 AUDIO
TITLE “Introduction To Destruction”
PERFORMER “Sum 41”
INDEX 01 00:00:00
FILE “02 – Sum 41 – Nothing On My Back.wav” WAVE
TRACK 02 AUDIO
TITLE “Nothing On My Back”
PERFORMER “Sum 41”
INDEX 01 00:00:00
FILE “03 – Sum 41 – Never Wake Up.wav” WAVE
TRACK 03 AUDIO
TITLE “Never Wake Up”
PERFORMER “Sum 41”
INDEX 01 00:00:00
FILE “04 – Sum 41 – Fat Lip.wav” WAVE
TRACK 04 AUDIO
TITLE “Fat Lip”
PERFORMER “Sum 41”
INDEX 01 00:00:00
FILE “05 – Sum 41 – Rhythms.wav” WAVE
TRACK 05 AUDIO
TITLE “Rhythms”
PERFORMER “Sum 41”
INDEX 01 00:00:00
FILE “06 – Sum 41 – Motivation.wav” WAVE
TRACK 06 AUDIO
TITLE “Motivation”
PERFORMER “Sum 41”
INDEX 01 00:00:00
FILE “07 – Sum 41 – In Too Deep.wav” WAVE
TRACK 07 AUDIO
TITLE “In Too Deep”
PERFORMER “Sum 41”
INDEX 01 00:00:00
FILE “08 – Sum 41 – Summer.wav” WAVE
TRACK 08 AUDIO
TITLE “Summer”
PERFORMER “Sum 41”
INDEX 01 00:00:00
FILE “09 – Sum 41 – Handle This.wav” WAVE
TRACK 09 AUDIO
TITLE “Handle This”
PERFORMER “Sum 41”
FLAGS PRE
INDEX 01 00:00:00
FILE “10 – Sum 41 – Crazy Amanda Bunkface.wav” WAVE
TRACK 10 AUDIO
TITLE “Crazy Amanda Bunkface”
PERFORMER “Sum 41”
INDEX 01 00:00:00
FILE “11 – Sum 41 – All She’s Got.wav” WAVE
TRACK 11 AUDIO
TITLE “All She’s Got”
PERFORMER “Sum 41”
INDEX 01 00:00:00
FILE “12 – Sum 41 – Heart Attack.wav” WAVE
TRACK 12 AUDIO
TITLE “Heart Attack”
PERFORMER “Sum 41”
INDEX 01 00:00:00
FILE “13 – Sum 41 – Pain For Pleasure.wav” WAVE
TRACK 13 AUDIO
TITLE “Pain For Pleasure”
PERFORMER “Sum 41”
INDEX 01 00:00:00
TRACK 14 MODEx/2xxx
TITLE “data track”
PERFORMER “Sum 41”
INDEX 00 01:43:21

AUDIOCHECKER v1.2 – by Dester – opdester@freemail.hu
~~~~~~~~~~~~~~~~~

01 -===- K:\Sum 41\2001 – All Killer No Filler\01 – Sum 41 – Introduction To Destruction.flac
Extracted successfully
Conclusion: This track looks like CDDA with probability 100%

02 -===- K:\Sum 41\2001 – All Killer No Filler\02 – Sum 41 – Nothing On My Back.flac
Extracted successfully
Conclusion: This track looks like CDDA with probability 99%

03 -===- K:\Sum 41\2001 – All Killer No Filler\03 – Sum 41 – Never Wake Up.flac
Extracted successfully
Conclusion: This track looks like CDDA with probability 100%

04 -===- K:\Sum 41\2001 – All Killer No Filler\04 – Sum 41 – Fat Lip.flac
Extracted successfully
Conclusion: This track looks like CDDA with probability 100%

05 -===- K:\Sum 41\2001 – All Killer No Filler\05 – Sum 41 – Rhythms.flac
Extracted successfully
Conclusion: This track looks like CDDA with probability 100%

06 -===- K:\Sum 41\2001 – All Killer No Filler\06 – Sum 41 – Motivation.flac
Extracted successfully
Conclusion: This track looks like CDDA with probability 100%

07 -===- K:\Sum 41\2001 – All Killer No Filler\07 – Sum 41 – In Too Deep.flac
Extracted successfully
Conclusion: This track looks like CDDA with probability 100%

08 -===- K:\Sum 41\2001 – All Killer No Filler\08 – Sum 41 – Summer.flac
Extracted successfully
Conclusion: This track looks like CDDA with probability 100%

09 -===- K:\Sum 41\2001 – All Killer No Filler\09 – Sum 41 – Handle This.flac
Extracted successfully
Conclusion: This track looks like CDDA with probability 100%

10 -===- K:\Sum 41\2001 – All Killer No Filler\10 – Sum 41 – Crazy Amanda Bunkface.flac
Extracted successfully
Conclusion: This track looks like CDDA with probability 100%

11 -===- K:\Sum 41\2001 – All Killer No Filler\11 – Sum 41 – All She’s Got.flac
Extracted successfully
Conclusion: This track looks like CDDA with probability 100%

12 -===- K:\Sum 41\2001 – All Killer No Filler\12 – Sum 41 – Heart Attack.flac
Extracted successfully
Conclusion: This track looks like CDDA with probability 100%

13 -===- K:\Sum 41\2001 – All Killer No Filler\13 – Sum 41 – Pain For Pleasure.flac
Extracted successfully
Conclusion: This track looks like CDDA with probability 100%


Leave a Reply

Your email address will not be published. Required fields are marked *

This site uses Akismet to reduce spam. Learn how your comment data is processed.