Sum 41 – All Killer, No Filler (Japanese Edition)




Artist: Sum 41
Year: 2001/2011
Genre: Punk
Notes: Discogs
Add. Notes: Japanese Edition
Cover incl.: Yes
Encoder: FLAC
Bitrate: ~1000 kBit/s (44.1 kHz/16 Bit/s)
Log & Cue incl.: Yes
Size: 492,16 MB
Password: “slam” (without ” “)


All Downloads/Hosters are compatible

Download 1
Turbobit.net
Rapidgator.net
UploadEver.com
KatFile.com
UsersDrive.com
Download 2
Turbobit.net
Rapidgator.net
UploadEver.com
KatFile.com
UsersDrive.com
Download 3
Turbobit.net
Rapidgator.net
UploadEver.com
KatFile.com
UsersDrive.com

Tracklist:

1 - Introduction To Destruction - 0:37
2 - Nothing On My Back - 3:01
3 - Never Wake Up - 0:49
4 - Fat Lip - 2:58
5 - Rhythms - 2:58
6 - Motivation - 2:49
7 - In Too Deep - 3:27
8 - Summer - 2:49
9 - Handle This - 3:37
10 - Crazy Amanda Bunkface - 2:15
11 - All She's Got - 2:21
12 - Heart Attack - 2:49
13 - Pain For Pleasure - 1:42
14 - Makes No Difference - 3:11
15 - What I Believe - 2:49
16 - Machine Gun - 2:29
17 - T.H.T. (Tables Have Turned) - 0:43
18 - It's What We're All About - 3:34
19 - Fat Lip (Live) - 2:57
20 - Motivation (Live) - 3:08
21 - Crazy Amanda Bunkface (Live) - 2:03
22 - All She's Got (Live) - 3:06
23 - Makes No Difference (Live) - 4:57
24 - Machine Gun (Live) - 2:53
25 - It's What We're All About (Live) - 2:26

EAC-Log, CUE-Sheed & NFO:

Click to open spoiler
X Lossless Decoder version 20121222 (142.2)

XLD extraction logfile from 2015-02-03 20:29:20 +0000

Sum 41 / All Killer No Filler – 10th Anniversary Collection (Japanese Import)

Used drive : SONY DVD RW DRX-S70U (revision 1.D6)
Media type : CD-Recordable

Ripper mode : XLD Secure Ripper
Disable audio cache : OK for the drive with a cache less than 1375KiB
Make use of C2 pointers : NO
Read offset correction : 48
Max retry count : 20
Gap status : Analyzed, Appended

TOC of the extracted CD
Track | Start | Length | Start sector | End sector
———————————————————
1 | 00:00:00 | 00:37:14 | 0 | 2788
2 | 00:37:14 | 03:01:34 | 2789 | 16397
3 | 03:38:48 | 00:49:63 | 16398 | 20135
4 | 04:28:36 | 02:58:25 | 20136 | 33510
5 | 07:26:61 | 02:58:57 | 33511 | 46917
6 | 10:25:43 | 02:49:72 | 46918 | 59664
7 | 13:15:40 | 03:27:05 | 59665 | 75194
8 | 16:42:45 | 02:49:36 | 75195 | 87905
9 | 19:32:06 | 03:37:02 | 87906 | 104182
10 | 23:09:08 | 02:15:35 | 104183 | 114342
11 | 25:24:43 | 02:21:70 | 114343 | 124987
12 | 27:46:38 | 02:48:69 | 124988 | 137656
13 | 30:35:32 | 01:43:27 | 137657 | 145408
14 | 32:18:59 | 03:09:48 | 145409 | 159631
15 | 35:28:32 | 02:49:33 | 159632 | 172339
16 | 38:17:65 | 02:29:20 | 172340 | 183534
17 | 40:47:10 | 00:43:47 | 183535 | 186806
18 | 41:30:57 | 03:34:01 | 186807 | 202857
19 | 45:04:58 | 02:57:38 | 202858 | 216170
20 | 48:02:21 | 03:08:36 | 216171 | 230306
21 | 51:10:57 | 02:03:36 | 230307 | 239567
22 | 53:14:18 | 03:06:41 | 239568 | 253558
23 | 56:20:59 | 04:57:58 | 253559 | 275891
24 | 61:18:42 | 02:53:30 | 275892 | 288896
25 | 64:11:72 | 02:26:04 | 288897 | 299850

AccurateRip Summary
Disc not found in AccurateRip DB.

All Tracks
Album gain : -10.01 dB
Peak : 1.000000
Statistics
Read error : 0
Jitter error (maybe fixed) : 0
Retry sector count : 0
Damaged sector count : 0

Track 01
Filename : /Users/Aaron/Music/XLD Output/Sum 41 – All Killer No Filler – 10th Anniversary Collection (Japanese Import) (2011) [FLAC]/01 Introduction to Destruction.flac
/Users/Aaron/Music/XLD Output/Sum 41 – All Killer No Filler – 10th Anniversary Collection (Japanese Import) (2011) [MP3 320 CBR]/01 Introduction to Destruction.mp3
/Users/Aaron/Music/XLD Output/Sum 41 – All Killer No Filler – 10th Anniversary Collection (Japanese Import) (2011) [MP3 V0 VBR]/01 Introduction to Destruction.mp3
/Users/Aaron/Music/XLD Output/Sum 41 – All Killer No Filler – 10th Anniversary Collection (Japanese Import) (2011) [MP3 V2 VBR]/01 Introduction to Destruction.mp3
Pre-gap length : 00:02:00

Track gain : -1.98 dB
Peak : 0.854614
CRC32 hash (test run) : 46155F76
CRC32 hash : 46155F76
CRC32 hash (skip zero) : 217512FF
AccurateRip v1 signature : DA5B373B
AccurateRip v2 signature : 101F9190
->Track not present in AccurateRip database.
Statistics
Read error : 0
Jitter error (maybe fixed) : 0
Retry sector count : 0
Damaged sector count : 0

Track 02
Filename : /Users/Aaron/Music/XLD Output/Sum 41 – All Killer No Filler – 10th Anniversary Collection (Japanese Import) (2011) [FLAC]/02 Nothing on My Back.flac
/Users/Aaron/Music/XLD Output/Sum 41 – All Killer No Filler – 10th Anniversary Collection (Japanese Import) (2011) [MP3 320 CBR]/02 Nothing on My Back.mp3
/Users/Aaron/Music/XLD Output/Sum 41 – All Killer No Filler – 10th Anniversary Collection (Japanese Import) (2011) [MP3 V0 VBR]/02 Nothing on My Back.mp3
/Users/Aaron/Music/XLD Output/Sum 41 – All Killer No Filler – 10th Anniversary Collection (Japanese Import) (2011) [MP3 V2 VBR]/02 Nothing on My Back.mp3

Track gain : -9.71 dB
Peak : 0.988556
CRC32 hash (test run) : 54FD9298
CRC32 hash : 54FD9298
CRC32 hash (skip zero) : 5E9E7925
AccurateRip v1 signature : A958E7C4
AccurateRip v2 signature : FAB63E57
->Track not present in AccurateRip database.
Statistics
Read error : 0
Jitter error (maybe fixed) : 0
Retry sector count : 0
Damaged sector count : 0

Track 03
Filename : /Users/Aaron/Music/XLD Output/Sum 41 – All Killer No Filler – 10th Anniversary Collection (Japanese Import) (2011) [FLAC]/03 Never Wake Up.flac
/Users/Aaron/Music/XLD Output/Sum 41 – All Killer No Filler – 10th Anniversary Collection (Japanese Import) (2011) [MP3 320 CBR]/03 Never Wake Up.mp3
/Users/Aaron/Music/XLD Output/Sum 41 – All Killer No Filler – 10th Anniversary Collection (Japanese Import) (2011) [MP3 V0 VBR]/03 Never Wake Up.mp3
/Users/Aaron/Music/XLD Output/Sum 41 – All Killer No Filler – 10th Anniversary Collection (Japanese Import) (2011) [MP3 V2 VBR]/03 Never Wake Up.mp3

Track gain : -10.11 dB
Peak : 0.988556
CRC32 hash (test run) : 967C3C03
CRC32 hash : 967C3C03
CRC32 hash (skip zero) : 85C376A4
AccurateRip v1 signature : 8A5A5801
AccurateRip v2 signature : 8C01CC69
->Track not present in AccurateRip database.
Statistics
Read error : 0
Jitter error (maybe fixed) : 0
Retry sector count : 0
Damaged sector count : 0

Track 04
Filename : /Users/Aaron/Music/XLD Output/Sum 41 – All Killer No Filler – 10th Anniversary Collection (Japanese Import) (2011) [FLAC]/04 Fat Lip.flac
/Users/Aaron/Music/XLD Output/Sum 41 – All Killer No Filler – 10th Anniversary Collection (Japanese Import) (2011) [MP3 320 CBR]/04 Fat Lip.mp3
/Users/Aaron/Music/XLD Output/Sum 41 – All Killer No Filler – 10th Anniversary Collection (Japanese Import) (2011) [MP3 V0 VBR]/04 Fat Lip.mp3
/Users/Aaron/Music/XLD Output/Sum 41 – All Killer No Filler – 10th Anniversary Collection (Japanese Import) (2011) [MP3 V2 VBR]/04 Fat Lip.mp3

Track gain : -10.39 dB
Peak : 0.988556
CRC32 hash (test run) : FA9B5885
CRC32 hash : FA9B5885
CRC32 hash (skip zero) : 7DD68B0E
AccurateRip v1 signature : C242C17C
AccurateRip v2 signature : C3A23679
->Track not present in AccurateRip database.
Statistics
Read error : 0
Jitter error (maybe fixed) : 0
Retry sector count : 0
Damaged sector count : 0

Track 05
Filename : /Users/Aaron/Music/XLD Output/Sum 41 – All Killer No Filler – 10th Anniversary Collection (Japanese Import) (2011) [FLAC]/05 Rhythms.flac
/Users/Aaron/Music/XLD Output/Sum 41 – All Killer No Filler – 10th Anniversary Collection (Japanese Import) (2011) [MP3 320 CBR]/05 Rhythms.mp3
/Users/Aaron/Music/XLD Output/Sum 41 – All Killer No Filler – 10th Anniversary Collection (Japanese Import) (2011) [MP3 V0 VBR]/05 Rhythms.mp3
/Users/Aaron/Music/XLD Output/Sum 41 – All Killer No Filler – 10th Anniversary Collection (Japanese Import) (2011) [MP3 V2 VBR]/05 Rhythms.mp3

Track gain : -10.24 dB
Peak : 0.988556
CRC32 hash (test run) : 8DCB7B0A
CRC32 hash : 8DCB7B0A
CRC32 hash (skip zero) : 9BA26977
AccurateRip v1 signature : 2FC9C5B1
AccurateRip v2 signature : 4A06517B
->Track not present in AccurateRip database.
Statistics
Read error : 0
Jitter error (maybe fixed) : 0
Retry sector count : 0
Damaged sector count : 0

Track 06
Filename : /Users/Aaron/Music/XLD Output/Sum 41 – All Killer No Filler – 10th Anniversary Collection (Japanese Import) (2011) [FLAC]/06 Motivation.flac
/Users/Aaron/Music/XLD Output/Sum 41 – All Killer No Filler – 10th Anniversary Collection (Japanese Import) (2011) [MP3 320 CBR]/06 Motivation.mp3
/Users/Aaron/Music/XLD Output/Sum 41 – All Killer No Filler – 10th Anniversary Collection (Japanese Import) (2011) [MP3 V0 VBR]/06 Motivation.mp3
/Users/Aaron/Music/XLD Output/Sum 41 – All Killer No Filler – 10th Anniversary Collection (Japanese Import) (2011) [MP3 V2 VBR]/06 Motivation.mp3

Track gain : -8.28 dB
Peak : 0.988556
CRC32 hash (test run) : ACE75C9F
CRC32 hash : ACE75C9F
CRC32 hash (skip zero) : 37003DB8
AccurateRip v1 signature : 02CB1E87
AccurateRip v2 signature : CD5835F4
->Track not present in AccurateRip database.
Statistics
Read error : 0
Jitter error (maybe fixed) : 0
Retry sector count : 0
Damaged sector count : 0

Track 07
Filename : /Users/Aaron/Music/XLD Output/Sum 41 – All Killer No Filler – 10th Anniversary Collection (Japanese Import) (2011) [FLAC]/07 In Too Deep.flac
/Users/Aaron/Music/XLD Output/Sum 41 – All Killer No Filler – 10th Anniversary Collection (Japanese Import) (2011) [MP3 320 CBR]/07 In Too Deep.mp3
/Users/Aaron/Music/XLD Output/Sum 41 – All Killer No Filler – 10th Anniversary Collection (Japanese Import) (2011) [MP3 V0 VBR]/07 In Too Deep.mp3
/Users/Aaron/Music/XLD Output/Sum 41 – All Killer No Filler – 10th Anniversary Collection (Japanese Import) (2011) [MP3 V2 VBR]/07 In Too Deep.mp3

Track gain : -9.54 dB
Peak : 0.988556
CRC32 hash (test run) : 10F18AB8
CRC32 hash : 10F18AB8
CRC32 hash (skip zero) : 104182E9
AccurateRip v1 signature : 051ACFA3
AccurateRip v2 signature : C36DD365
->Track not present in AccurateRip database.
Statistics
Read error : 0
Jitter error (maybe fixed) : 0
Retry sector count : 0
Damaged sector count : 0

Track 08
Filename : /Users/Aaron/Music/XLD Output/Sum 41 – All Killer No Filler – 10th Anniversary Collection (Japanese Import) (2011) [FLAC]/08 Summer.flac
/Users/Aaron/Music/XLD Output/Sum 41 – All Killer No Filler – 10th Anniversary Collection (Japanese Import) (2011) [MP3 320 CBR]/08 Summer.mp3
/Users/Aaron/Music/XLD Output/Sum 41 – All Killer No Filler – 10th Anniversary Collection (Japanese Import) (2011) [MP3 V0 VBR]/08 Summer.mp3
/Users/Aaron/Music/XLD Output/Sum 41 – All Killer No Filler – 10th Anniversary Collection (Japanese Import) (2011) [MP3 V2 VBR]/08 Summer.mp3
Pre-gap length : 00:00:12

Track gain : -10.29 dB
Peak : 0.988556
CRC32 hash (test run) : FE363A05
CRC32 hash : FE363A05
CRC32 hash (skip zero) : 41D3A3C5
AccurateRip v1 signature : D26EDFFC
AccurateRip v2 signature : 7F6D2771
->Track not present in AccurateRip database.
Statistics
Read error : 0
Jitter error (maybe fixed) : 0
Retry sector count : 0
Damaged sector count : 0

Track 09
Filename : /Users/Aaron/Music/XLD Output/Sum 41 – All Killer No Filler – 10th Anniversary Collection (Japanese Import) (2011) [FLAC]/09 Handle This.flac
/Users/Aaron/Music/XLD Output/Sum 41 – All Killer No Filler – 10th Anniversary Collection (Japanese Import) (2011) [MP3 320 CBR]/09 Handle This.mp3
/Users/Aaron/Music/XLD Output/Sum 41 – All Killer No Filler – 10th Anniversary Collection (Japanese Import) (2011) [MP3 V0 VBR]/09 Handle This.mp3
/Users/Aaron/Music/XLD Output/Sum 41 – All Killer No Filler – 10th Anniversary Collection (Japanese Import) (2011) [MP3 V2 VBR]/09 Handle This.mp3

Track gain : -10.27 dB
Peak : 0.988556
CRC32 hash (test run) : 5F2FF0D4
CRC32 hash : 5F2FF0D4
CRC32 hash (skip zero) : 09166F3D
AccurateRip v1 signature : 016A3816
AccurateRip v2 signature : 3F601F66
->Track not present in AccurateRip database.
Statistics
Read error : 0
Jitter error (maybe fixed) : 0
Retry sector count : 0
Damaged sector count : 0

Track 10
Filename : /Users/Aaron/Music/XLD Output/Sum 41 – All Killer No Filler – 10th Anniversary Collection (Japanese Import) (2011) [FLAC]/10 Crazy Amanda Bunkface.flac
/Users/Aaron/Music/XLD Output/Sum 41 – All Killer No Filler – 10th Anniversary Collection (Japanese Import) (2011) [MP3 320 CBR]/10 Crazy Amanda Bunkface.mp3
/Users/Aaron/Music/XLD Output/Sum 41 – All Killer No Filler – 10th Anniversary Collection (Japanese Import) (2011) [MP3 V0 VBR]/10 Crazy Amanda Bunkface.mp3
/Users/Aaron/Music/XLD Output/Sum 41 – All Killer No Filler – 10th Anniversary Collection (Japanese Import) (2011) [MP3 V2 VBR]/10 Crazy Amanda Bunkface.mp3

Track gain : -9.91 dB
Peak : 0.988556
CRC32 hash (test run) : 8847D91C
CRC32 hash : 8847D91C
CRC32 hash (skip zero) : 80493EC1
AccurateRip v1 signature : 645D9675
AccurateRip v2 signature : BB6762A0
->Track not present in AccurateRip database.
Statistics
Read error : 0
Jitter error (maybe fixed) : 0
Retry sector count : 0
Damaged sector count : 0

Track 11
Filename : /Users/Aaron/Music/XLD Output/Sum 41 – All Killer No Filler – 10th Anniversary Collection (Japanese Import) (2011) [FLAC]/11 All She’s Got.flac
/Users/Aaron/Music/XLD Output/Sum 41 – All Killer No Filler – 10th Anniversary Collection (Japanese Import) (2011) [MP3 320 CBR]/11 All She’s Got.mp3
/Users/Aaron/Music/XLD Output/Sum 41 – All Killer No Filler – 10th Anniversary Collection (Japanese Import) (2011) [MP3 V0 VBR]/11 All She’s Got.mp3
/Users/Aaron/Music/XLD Output/Sum 41 – All Killer No Filler – 10th Anniversary Collection (Japanese Import) (2011) [MP3 V2 VBR]/11 All She’s Got.mp3

Track gain : -10.47 dB
Peak : 0.988556
CRC32 hash (test run) : CA610BB6
CRC32 hash : CA610BB6
CRC32 hash (skip zero) : DBFA92C4
AccurateRip v1 signature : 21BC8807
AccurateRip v2 signature : DA3D3B29
->Track not present in AccurateRip database.
Statistics
Read error : 0
Jitter error (maybe fixed) : 0
Retry sector count : 0
Damaged sector count : 0

Track 12
Filename : /Users/Aaron/Music/XLD Output/Sum 41 – All Killer No Filler – 10th Anniversary Collection (Japanese Import) (2011) [FLAC]/12 Heart Attack.flac
/Users/Aaron/Music/XLD Output/Sum 41 – All Killer No Filler – 10th Anniversary Collection (Japanese Import) (2011) [MP3 320 CBR]/12 Heart Attack.mp3
/Users/Aaron/Music/XLD Output/Sum 41 – All Killer No Filler – 10th Anniversary Collection (Japanese Import) (2011) [MP3 V0 VBR]/12 Heart Attack.mp3
/Users/Aaron/Music/XLD Output/Sum 41 – All Killer No Filler – 10th Anniversary Collection (Japanese Import) (2011) [MP3 V2 VBR]/12 Heart Attack.mp3

Track gain : -9.93 dB
Peak : 0.988556
CRC32 hash (test run) : FE607DFF
CRC32 hash : FE607DFF
CRC32 hash (skip zero) : 64971AC8
AccurateRip v1 signature : 99549F17
AccurateRip v2 signature : 7297B46D
->Track not present in AccurateRip database.
Statistics
Read error : 0
Jitter error (maybe fixed) : 0
Retry sector count : 0
Damaged sector count : 0

Track 13
Filename : /Users/Aaron/Music/XLD Output/Sum 41 – All Killer No Filler – 10th Anniversary Collection (Japanese Import) (2011) [FLAC]/13 Pain for Pleasure.flac
/Users/Aaron/Music/XLD Output/Sum 41 – All Killer No Filler – 10th Anniversary Collection (Japanese Import) (2011) [MP3 320 CBR]/13 Pain for Pleasure.mp3
/Users/Aaron/Music/XLD Output/Sum 41 – All Killer No Filler – 10th Anniversary Collection (Japanese Import) (2011) [MP3 V0 VBR]/13 Pain for Pleasure.mp3
/Users/Aaron/Music/XLD Output/Sum 41 – All Killer No Filler – 10th Anniversary Collection (Japanese Import) (2011) [MP3 V2 VBR]/13 Pain for Pleasure.mp3

Track gain : -10.06 dB
Peak : 0.988556
CRC32 hash (test run) : A1CF71E7
CRC32 hash : A1CF71E7
CRC32 hash (skip zero) : 8AF2F041
AccurateRip v1 signature : A9D900B0
AccurateRip v2 signature : CEA4F39A
->Track not present in AccurateRip database.
Statistics
Read error : 0
Jitter error (maybe fixed) : 0
Retry sector count : 0
Damaged sector count : 0

Track 14
Filename : /Users/Aaron/Music/XLD Output/Sum 41 – All Killer No Filler – 10th Anniversary Collection (Japanese Import) (2011) [FLAC]/14 Makes No Difference.flac
/Users/Aaron/Music/XLD Output/Sum 41 – All Killer No Filler – 10th Anniversary Collection (Japanese Import) (2011) [MP3 320 CBR]/14 Makes No Difference.mp3
/Users/Aaron/Music/XLD Output/Sum 41 – All Killer No Filler – 10th Anniversary Collection (Japanese Import) (2011) [MP3 V0 VBR]/14 Makes No Difference.mp3
/Users/Aaron/Music/XLD Output/Sum 41 – All Killer No Filler – 10th Anniversary Collection (Japanese Import) (2011) [MP3 V2 VBR]/14 Makes No Difference.mp3
Pre-gap length : 00:00:24

Track gain : -10.71 dB
Peak : 0.988556
CRC32 hash (test run) : B574C2D9
CRC32 hash : B574C2D9
CRC32 hash (skip zero) : 8EF984F5
AccurateRip v1 signature : A5E3861B
AccurateRip v2 signature : 71721F91
->Track not present in AccurateRip database.
Statistics
Read error : 0
Jitter error (maybe fixed) : 0
Retry sector count : 0
Damaged sector count : 0

Track 15
Filename : /Users/Aaron/Music/XLD Output/Sum 41 – All Killer No Filler – 10th Anniversary Collection (Japanese Import) (2011) [FLAC]/15 What I Believe (Bonus Track).flac
/Users/Aaron/Music/XLD Output/Sum 41 – All Killer No Filler – 10th Anniversary Collection (Japanese Import) (2011) [MP3 320 CBR]/15 What I Believe (Bonus Track).mp3
/Users/Aaron/Music/XLD Output/Sum 41 – All Killer No Filler – 10th Anniversary Collection (Japanese Import) (2011) [MP3 V0 VBR]/15 What I Believe (Bonus Track).mp3
/Users/Aaron/Music/XLD Output/Sum 41 – All Killer No Filler – 10th Anniversary Collection (Japanese Import) (2011) [MP3 V2 VBR]/15 What I Believe (Bonus Track).mp3

Track gain : -10.97 dB
Peak : 0.988556
CRC32 hash (test run) : 13192976
CRC32 hash : 13192976
CRC32 hash (skip zero) : AAE7B93D
AccurateRip v1 signature : F9015E67
AccurateRip v2 signature : 62CD3189
->Track not present in AccurateRip database.
Statistics
Read error : 0
Jitter error (maybe fixed) : 0
Retry sector count : 0
Damaged sector count : 0

Track 16
Filename : /Users/Aaron/Music/XLD Output/Sum 41 – All Killer No Filler – 10th Anniversary Collection (Japanese Import) (2011) [FLAC]/16 Machine Gun (Bonus Track).flac
/Users/Aaron/Music/XLD Output/Sum 41 – All Killer No Filler – 10th Anniversary Collection (Japanese Import) (2011) [MP3 320 CBR]/16 Machine Gun (Bonus Track).mp3
/Users/Aaron/Music/XLD Output/Sum 41 – All Killer No Filler – 10th Anniversary Collection (Japanese Import) (2011) [MP3 V0 VBR]/16 Machine Gun (Bonus Track).mp3
/Users/Aaron/Music/XLD Output/Sum 41 – All Killer No Filler – 10th Anniversary Collection (Japanese Import) (2011) [MP3 V2 VBR]/16 Machine Gun (Bonus Track).mp3

Track gain : -9.71 dB
Peak : 0.988556
CRC32 hash (test run) : D1D4C39F
CRC32 hash : D1D4C39F
CRC32 hash (skip zero) : ADEB0385
AccurateRip v1 signature : 01564675
AccurateRip v2 signature : 31427129
->Track not present in AccurateRip database.
Statistics
Read error : 0
Jitter error (maybe fixed) : 0
Retry sector count : 0
Damaged sector count : 0

Track 17
Filename : /Users/Aaron/Music/XLD Output/Sum 41 – All Killer No Filler – 10th Anniversary Collection (Japanese Import) (2011) [FLAC]/17 T.H.T. (Tables Have Turned) [Bonus Track].flac
/Users/Aaron/Music/XLD Output/Sum 41 – All Killer No Filler – 10th Anniversary Collection (Japanese Import) (2011) [MP3 320 CBR]/17 T.H.T. (Tables Have Turned) [Bonus Track].mp3
/Users/Aaron/Music/XLD Output/Sum 41 – All Killer No Filler – 10th Anniversary Collection (Japanese Import) (2011) [MP3 V0 VBR]/17 T.H.T. (Tables Have Turned) [Bonus Track].mp3
/Users/Aaron/Music/XLD Output/Sum 41 – All Killer No Filler – 10th Anniversary Collection (Japanese Import) (2011) [MP3 V2 VBR]/17 T.H.T. (Tables Have Turned) [Bonus Track].mp3

Track gain : -11.65 dB
Peak : 0.988556
CRC32 hash (test run) : 21986844
CRC32 hash : 21986844
CRC32 hash (skip zero) : 2E3AB698
AccurateRip v1 signature : 6C67CA81
AccurateRip v2 signature : 55C810F6
->Track not present in AccurateRip database.
Statistics
Read error : 0
Jitter error (maybe fixed) : 0
Retry sector count : 0
Damaged sector count : 0

Track 18
Filename : /Users/Aaron/Music/XLD Output/Sum 41 – All Killer No Filler – 10th Anniversary Collection (Japanese Import) (2011) [FLAC]/18 It’s What We’re All About (Bonus Track).flac
/Users/Aaron/Music/XLD Output/Sum 41 – All Killer No Filler – 10th Anniversary Collection (Japanese Import) (2011) [MP3 320 CBR]/18 It’s What We’re All About (Bonus Track).mp3
/Users/Aaron/Music/XLD Output/Sum 41 – All Killer No Filler – 10th Anniversary Collection (Japanese Import) (2011) [MP3 V0 VBR]/18 It’s What We’re All About (Bonus Track).mp3
/Users/Aaron/Music/XLD Output/Sum 41 – All Killer No Filler – 10th Anniversary Collection (Japanese Import) (2011) [MP3 V2 VBR]/18 It’s What We’re All About (Bonus Track).mp3

Track gain : -9.36 dB
Peak : 0.999969
CRC32 hash (test run) : 45585E10
CRC32 hash : 45585E10
CRC32 hash (skip zero) : 1CF47176
AccurateRip v1 signature : EB5D0B56
AccurateRip v2 signature : 340F612A
->Track not present in AccurateRip database.
Statistics
Read error : 0
Jitter error (maybe fixed) : 0
Retry sector count : 0
Damaged sector count : 0

Track 19
Filename : /Users/Aaron/Music/XLD Output/Sum 41 – All Killer No Filler – 10th Anniversary Collection (Japanese Import) (2011) [FLAC]/19 Fat Lip (Live) [Bonus Track].flac
/Users/Aaron/Music/XLD Output/Sum 41 – All Killer No Filler – 10th Anniversary Collection (Japanese Import) (2011) [MP3 320 CBR]/19 Fat Lip (Live) [Bonus Track].mp3
/Users/Aaron/Music/XLD Output/Sum 41 – All Killer No Filler – 10th Anniversary Collection (Japanese Import) (2011) [MP3 V0 VBR]/19 Fat Lip (Live) [Bonus Track].mp3
/Users/Aaron/Music/XLD Output/Sum 41 – All Killer No Filler – 10th Anniversary Collection (Japanese Import) (2011) [MP3 V2 VBR]/19 Fat Lip (Live) [Bonus Track].mp3
Pre-gap length : 00:00:37

Track gain : -8.68 dB
Peak : 0.989258
CRC32 hash (test run) : A92A64FB
CRC32 hash : A92A64FB
CRC32 hash (skip zero) : 0350A319
AccurateRip v1 signature : 6CA3441D
AccurateRip v2 signature : 00655F49
->Track not present in AccurateRip database.
Statistics
Read error : 0
Jitter error (maybe fixed) : 0
Retry sector count : 0
Damaged sector count : 0

Track 20
Filename : /Users/Aaron/Music/XLD Output/Sum 41 – All Killer No Filler – 10th Anniversary Collection (Japanese Import) (2011) [FLAC]/20 Motivation (Live) [Bonus Track].flac
/Users/Aaron/Music/XLD Output/Sum 41 – All Killer No Filler – 10th Anniversary Collection (Japanese Import) (2011) [MP3 320 CBR]/20 Motivation (Live) [Bonus Track].mp3
/Users/Aaron/Music/XLD Output/Sum 41 – All Killer No Filler – 10th Anniversary Collection (Japanese Import) (2011) [MP3 V0 VBR]/20 Motivation (Live) [Bonus Track].mp3
/Users/Aaron/Music/XLD Output/Sum 41 – All Killer No Filler – 10th Anniversary Collection (Japanese Import) (2011) [MP3 V2 VBR]/20 Motivation (Live) [Bonus Track].mp3
Pre-gap length : 00:00:37

Track gain : -7.15 dB
Peak : 0.999969
CRC32 hash (test run) : 58FBDE14
CRC32 hash : 58FBDE14
CRC32 hash (skip zero) : ED5F0ECF
AccurateRip v1 signature : 070D1FD0
AccurateRip v2 signature : FA3DC487
->Track not present in AccurateRip database.
Statistics
Read error : 0
Jitter error (maybe fixed) : 0
Retry sector count : 0
Damaged sector count : 0

Track 21
Filename : /Users/Aaron/Music/XLD Output/Sum 41 – All Killer No Filler – 10th Anniversary Collection (Japanese Import) (2011) [FLAC]/21 Crazy Amanda Bunkface (Live) [Bonus Track].flac
/Users/Aaron/Music/XLD Output/Sum 41 – All Killer No Filler – 10th Anniversary Collection (Japanese Import) (2011) [MP3 320 CBR]/21 Crazy Amanda Bunkface (Live) [Bonus Track].mp3
/Users/Aaron/Music/XLD Output/Sum 41 – All Killer No Filler – 10th Anniversary Collection (Japanese Import) (2011) [MP3 V0 VBR]/21 Crazy Amanda Bunkface (Live) [Bonus Track].mp3
/Users/Aaron/Music/XLD Output/Sum 41 – All Killer No Filler – 10th Anniversary Collection (Japanese Import) (2011) [MP3 V2 VBR]/21 Crazy Amanda Bunkface (Live) [Bonus Track].mp3
Pre-gap length : 00:00:37

Track gain : -8.27 dB
Peak : 0.999969
CRC32 hash (test run) : 6B45B02B
CRC32 hash : 6B45B02B
CRC32 hash (skip zero) : BD68ACE3
AccurateRip v1 signature : C2606D29
AccurateRip v2 signature : 5416FC7B
->Track not present in AccurateRip database.
Statistics
Read error : 0
Jitter error (maybe fixed) : 0
Retry sector count : 0
Damaged sector count : 0

Track 22
Filename : /Users/Aaron/Music/XLD Output/Sum 41 – All Killer No Filler – 10th Anniversary Collection (Japanese Import) (2011) [FLAC]/22 All She’s Got (Live) [Bonus Track].flac
/Users/Aaron/Music/XLD Output/Sum 41 – All Killer No Filler – 10th Anniversary Collection (Japanese Import) (2011) [MP3 320 CBR]/22 All She’s Got (Live) [Bonus Track].mp3
/Users/Aaron/Music/XLD Output/Sum 41 – All Killer No Filler – 10th Anniversary Collection (Japanese Import) (2011) [MP3 V0 VBR]/22 All She’s Got (Live) [Bonus Track].mp3
/Users/Aaron/Music/XLD Output/Sum 41 – All Killer No Filler – 10th Anniversary Collection (Japanese Import) (2011) [MP3 V2 VBR]/22 All She’s Got (Live) [Bonus Track].mp3
Pre-gap length : 00:00:37

Track gain : -7.59 dB
Peak : 0.987854
CRC32 hash (test run) : 12CBC8AF
CRC32 hash : 12CBC8AF
CRC32 hash (skip zero) : E91A6363
AccurateRip v1 signature : E6A6D2C1
AccurateRip v2 signature : 58959F5C
->Track not present in AccurateRip database.
Statistics
Read error : 0
Jitter error (maybe fixed) : 0
Retry sector count : 0
Damaged sector count : 0

Track 23
Filename : /Users/Aaron/Music/XLD Output/Sum 41 – All Killer No Filler – 10th Anniversary Collection (Japanese Import) (2011) [FLAC]/23 Makes No Difference (Live) [Bonus Track].flac
/Users/Aaron/Music/XLD Output/Sum 41 – All Killer No Filler – 10th Anniversary Collection (Japanese Import) (2011) [MP3 320 CBR]/23 Makes No Difference (Live) [Bonus Track].mp3
/Users/Aaron/Music/XLD Output/Sum 41 – All Killer No Filler – 10th Anniversary Collection (Japanese Import) (2011) [MP3 V0 VBR]/23 Makes No Difference (Live) [Bonus Track].mp3
/Users/Aaron/Music/XLD Output/Sum 41 – All Killer No Filler – 10th Anniversary Collection (Japanese Import) (2011) [MP3 V2 VBR]/23 Makes No Difference (Live) [Bonus Track].mp3
Pre-gap length : 00:00:37

Track gain : -6.86 dB
Peak : 0.999969
CRC32 hash (test run) : AE3C59E4
CRC32 hash : AE3C59E4
CRC32 hash (skip zero) : D53E85FC
AccurateRip v1 signature : AE3CE1D8
AccurateRip v2 signature : 031020D2
->Track not present in AccurateRip database.
Statistics
Read error : 0
Jitter error (maybe fixed) : 0
Retry sector count : 0
Damaged sector count : 0

Track 24
Filename : /Users/Aaron/Music/XLD Output/Sum 41 – All Killer No Filler – 10th Anniversary Collection (Japanese Import) (2011) [FLAC]/24 Machine Gun (Live) [Bonus Track].flac
/Users/Aaron/Music/XLD Output/Sum 41 – All Killer No Filler – 10th Anniversary Collection (Japanese Import) (2011) [MP3 320 CBR]/24 Machine Gun (Live) [Bonus Track].mp3
/Users/Aaron/Music/XLD Output/Sum 41 – All Killer No Filler – 10th Anniversary Collection (Japanese Import) (2011) [MP3 V0 VBR]/24 Machine Gun (Live) [Bonus Track].mp3
/Users/Aaron/Music/XLD Output/Sum 41 – All Killer No Filler – 10th Anniversary Collection (Japanese Import) (2011) [MP3 V2 VBR]/24 Machine Gun (Live) [Bonus Track].mp3
Pre-gap length : 00:00:37

Track gain : -7.11 dB
Peak : 1.000000
CRC32 hash (test run) : EFFBB33D
CRC32 hash : EFFBB33D
CRC32 hash (skip zero) : 5A06E011
AccurateRip v1 signature : D3C05AFB
AccurateRip v2 signature : BB1A0A36
->Track not present in AccurateRip database.
Statistics
Read error : 0
Jitter error (maybe fixed) : 0
Retry sector count : 0
Damaged sector count : 0

Track 25
Filename : /Users/Aaron/Music/XLD Output/Sum 41 – All Killer No Filler – 10th Anniversary Collection (Japanese Import) (2011) [FLAC]/25 It’s What We’re All About (Live) [Bonus Track].flac
/Users/Aaron/Music/XLD Output/Sum 41 – All Killer No Filler – 10th Anniversary Collection (Japanese Import) (2011) [MP3 320 CBR]/25 It’s What We’re All About (Live) [Bonus Track].mp3
/Users/Aaron/Music/XLD Output/Sum 41 – All Killer No Filler – 10th Anniversary Collection (Japanese Import) (2011) [MP3 V0 VBR]/25 It’s What We’re All About (Live) [Bonus Track].mp3
/Users/Aaron/Music/XLD Output/Sum 41 – All Killer No Filler – 10th Anniversary Collection (Japanese Import) (2011) [MP3 V2 VBR]/25 It’s What We’re All About (Live) [Bonus Track].mp3
Pre-gap length : 00:00:37

Track gain : -8.00 dB
Peak : 0.990601
CRC32 hash (test run) : 63D36CFC
CRC32 hash : 63D36CFC
CRC32 hash (skip zero) : 7B62A159
AccurateRip v1 signature : 2AE8E713
AccurateRip v2 signature : 31792D93
->Track not present in AccurateRip database.
Statistics
Read error : 0
Jitter error (maybe fixed) : 0
Retry sector count : 0
Damaged sector count : 0

No errors occurred

End of status report

—–BEGIN XLD SIGNATURE—–
YOWuoB81dpLLm15i37EWOE.vrIRYNhb43SJDGW2NJCb3UZ4UmQIEibkWUymh2CPZF9LEfhaLKdvETBZvZrybulScQ14t4C8P4S7WUGi
—–END XLD SIGNATURE—–

TITLE “All Killer, No Filler (10th Anniversary Collection) [2011, Japan, UICY-91747]”
PERFORMER “Sum 41”
REM GENRE “Punk”
REM DATE “2011”
REM DISCNUMBER 1
REM TOTALDISCS 1
REM DISCID 6E0F9E19
FILE “01 Introduction to Destruction.flac” WAVE
TRACK 01 AUDIO
TITLE “Introduction to Destruction”
PERFORMER “Sum 41”
ISRC USIR20110115
INDEX 01 00:00:00
FILE “02 Nothing on My Back.flac” WAVE
TRACK 02 AUDIO
TITLE “Nothing on My Back”
PERFORMER “Sum 41”
ISRC USIR20110118
INDEX 01 00:00:00
FILE “03 Never Wake Up.flac” WAVE
TRACK 03 AUDIO
TITLE “Never Wake Up”
PERFORMER “Sum 41”
ISRC USIR20110117
INDEX 01 00:00:00
FILE “04 Fat Lip.flac” WAVE
TRACK 04 AUDIO
TITLE “Fat Lip”
PERFORMER “Sum 41”
ISRC USIR20110124
INDEX 01 00:00:00
FILE “05 Rhythms.flac” WAVE
TRACK 05 AUDIO
TITLE “Rhythms”
PERFORMER “Sum 41”
ISRC USIR20110120
INDEX 01 00:00:00
FILE “06 Motivation.flac” WAVE
TRACK 06 AUDIO
TITLE “Motivation”
PERFORMER “Sum 41”
ISRC USIR20110116
INDEX 01 00:00:00
FILE “07 In Too Deep.flac” WAVE
TRACK 07 AUDIO
TITLE “In Too Deep”
PERFORMER “Sum 41”
ISRC USIR20110114
INDEX 01 00:00:00
TRACK 08 AUDIO
TITLE “Summer”
PERFORMER “Sum 41”
ISRC USIR20000137
INDEX 00 03:26:68
FILE “08 Summer.flac” WAVE
INDEX 01 00:00:00
FILE “09 Handle This.flac” WAVE
TRACK 09 AUDIO
TITLE “Handle This”
PERFORMER “Sum 41”
ISRC USIR20110112
INDEX 01 00:00:00
FILE “10 Crazy Amanda Bunkface.flac” WAVE
TRACK 10 AUDIO
TITLE “Crazy Amanda Bunkface”
PERFORMER “Sum 41”
ISRC USIR20110111
INDEX 01 00:00:00
FILE “11 All She’s Got.flac” WAVE
TRACK 11 AUDIO
TITLE “All She’s Got”
PERFORMER “Sum 41”
ISRC USIR20110110
INDEX 01 00:00:00
FILE “12 Heart Attack.flac” WAVE
TRACK 12 AUDIO
TITLE “Heart Attack”
PERFORMER “Sum 41”
ISRC USIR20110113
INDEX 01 00:00:00
FILE “13 Pain for Pleasure.flac” WAVE
TRACK 13 AUDIO
TITLE “Pain for Pleasure”
PERFORMER “Sum 41”
ISRC USIR20110119
INDEX 01 00:00:00
TRACK 14 AUDIO
TITLE “Makes No Difference”
PERFORMER “Sum 41”
ISRC USIR20000134
INDEX 00 01:43:03
FILE “14 Makes No Difference.flac” WAVE
INDEX 01 00:00:00
FILE “15 What I Believe.flac” WAVE
TRACK 15 AUDIO
TITLE “What I Believe”
PERFORMER “Sum 41”
ISRC USIR20000139
INDEX 01 00:00:00
FILE “16 Machine Gun.flac” WAVE
TRACK 16 AUDIO
TITLE “Machine Gun”
PERFORMER “Sum 41”
ISRC USIR20000133
INDEX 01 00:00:00
FILE “17 T.H.T. (Tables Have Turned).flac” WAVE
TRACK 17 AUDIO
TITLE “T.H.T. (Tables Have Turned)”
PERFORMER “Sum 41”
ISRC USIR20000138
INDEX 01 00:00:00
FILE “18 It’s What We’re All About.flac” WAVE
TRACK 18 AUDIO
TITLE “It’s What We’re All About”
PERFORMER “Sum 41”
INDEX 01 00:00:00
TRACK 19 AUDIO
TITLE “Fat Lip (Live)”
PERFORMER “Sum 41”
ISRC USIR20180410
INDEX 00 03:33:39
FILE “19 Fat Lip (Live).flac” WAVE
INDEX 01 00:00:00
TRACK 20 AUDIO
TITLE “Motivation (Live)”
PERFORMER “Sum 41”
INDEX 00 02:57:01
FILE “20 Motivation (Live).flac” WAVE
INDEX 01 00:00:00
TRACK 21 AUDIO
TITLE “Crazy Amanda Bunkface (Live)”
PERFORMER “Sum 41”
INDEX 00 03:07:74
FILE “21 Crazy Amanda Bunkface (Live).flac” WAVE
INDEX 01 00:00:00
TRACK 22 AUDIO
TITLE “All She’s Got (Live)”
PERFORMER “Sum 41”
ISRC USIR20110110
INDEX 00 02:02:74
FILE “22 All She’s Got (Live).flac” WAVE
INDEX 01 00:00:00
TRACK 23 AUDIO
TITLE “Makes No Difference (Live)”
PERFORMER “Sum 41”
INDEX 00 03:06:04
FILE “23 Makes No Difference (Live).flac” WAVE
INDEX 01 00:00:00
TRACK 24 AUDIO
TITLE “Machine Gun (Live)”
PERFORMER “Sum 41”
ISRC USIR20180409
INDEX 00 04:57:21
FILE “24 Machine Gun (Live).flac” WAVE
INDEX 01 00:00:00
TRACK 25 AUDIO
TITLE “It’s What We’re All About (Live)”
PERFORMER “Sum 41”
ISRC USIR20180577
INDEX 00 02:52:68
FILE “25 It’s What We’re All About (Live).flac” WAVE
INDEX 01 00:00:00


Leave a Reply

Your email address will not be published. Required fields are marked *

This site uses Akismet to reduce spam. Learn how your comment data is processed.