Sum 41 – 13 Voices (Japanese Edition)




Artist: Sum 41
Year: 2016
Genre: Punk
Notes: Discogs
Add. Notes: Japanese Edition
Cover incl.: Yes
Encoder: FLAC
Bitrate: ~1000 kBit/s (44.1 kHz/16 Bit/s)
Log & Cue incl.: Yes
Size: 401,07 MB
Password: “slam” (without ” “)


All Downloads/Hosters are compatible

Download 1
Turbobit.net
Rapidgator.net
KatFile.com
UploadRar.com
Download 2
Turbobit.net
Rapidgator.net
KatFile.com
UploadRar.com
Download 3
Turbobit.net
Rapidgator.net
KatFile.com
UploadRar.com

Tracklist:

1 - A Murder Of Crows - 3:04
2 - God Damn I'm Dead Again - 3:22
3 - Fake My Own Death - 3:14
4 - Breaking The Chain - 4:03
5 - There Will Be Blood - 3:29
6 - 13 Voices - 4:32
7 - War - 3:29
8 - God Save Us All (Death To Pop) - 3:53
9 - The Fall And The Rise - 3:09
10 - Twisted By Design - 5:28
11 - War (feat. Taka of One Ok Rock) - 3:29
12 - Better Days - 2:15
13 - Black Eyes - 3:14
14 - War (Acoustic) - 3:43
15 - Breaking The Chain (Acoustic) - 3:48
16 - Radio Radio (Cover) - 2:51

EAC-Log, CUE-Sheed & NFO:

Click to open spoiler
X Lossless Decoder version 20161007 (149.3)

XLD extraction logfile from 2016-10-12 22:21:45 -0700

Sum 41 / 13 Voices (Japan Edition)

Used drive : PLEXTOR BDDVDR PX-B310U (revision 1.07)
Media type : Pressed CD

Ripper mode : XLD Secure Ripper
Disable audio cache : OK for the drive with a cache less than 1375KiB
Make use of C2 pointers : NO
Read offset correction : 6
Max retry count : 20
Gap status : Analyzed, Appended (except HTOA)

TOC of the extracted CD
Track | Start | Length | Start sector | End sector
———————————————————
1 | 00:00:00 | 03:04:35 | 0 | 13834
2 | 03:04:35 | 03:22:06 | 13835 | 28990
3 | 06:26:41 | 03:14:44 | 28991 | 43584
4 | 09:41:10 | 04:03:07 | 43585 | 61816
5 | 13:44:17 | 03:29:44 | 61817 | 77535
6 | 17:13:61 | 04:32:20 | 77536 | 97955
7 | 21:46:06 | 03:29:50 | 97956 | 113680
8 | 25:15:56 | 03:53:26 | 113681 | 131181
9 | 29:09:07 | 03:09:66 | 131182 | 145422
10 | 32:18:73 | 05:28:74 | 145423 | 170096
11 | 37:47:72 | 03:29:50 | 170097 | 185821
12 | 41:17:47 | 02:15:20 | 185822 | 195966
13 | 43:32:67 | 03:14:19 | 195967 | 210535
14 | 46:47:11 | 03:43:15 | 210536 | 227275
15 | 50:30:26 | 03:48:11 | 227276 | 244386
16 | 54:18:37 | 02:51:57 | 244387 | 257268

AccurateRip Summary
Disc not found in AccurateRip DB.

All Tracks
Album gain : -11.29 dB
Peak : 1.000000
Statistics
Read error : 0
Jitter error (maybe fixed) : 0
Retry sector count : 0
Damaged sector count : 0

Track 01
Filename : /Volumes/2015 FLAC/Sum 41 – 13 Voices (Japan Edition) (2016) [FLAC]/01 – A Murder Of Crows.flac
Pre-gap length : 00:02:00

Track gain : -9.57 dB
Peak : 0.978394
CRC32 hash (test run) : FA947CB9
CRC32 hash : FA947CB9
CRC32 hash (skip zero) : 82433FEF
AccurateRip v1 signature : 2E4B6773
AccurateRip v2 signature : AD963C9E
->Track not present in AccurateRip database.
Statistics
Read error : 0
Jitter error (maybe fixed) : 0
Retry sector count : 0
Damaged sector count : 0

Track 02
Filename : /Volumes/2015 FLAC/Sum 41 – 13 Voices (Japan Edition) (2016) [FLAC]/02 – God Damn I’m Dead Again.flac

Track gain : -11.57 dB
Peak : 1.000000
CRC32 hash (test run) : 48880014
CRC32 hash : 48880014
CRC32 hash (skip zero) : 23DA37C2
AccurateRip v1 signature : 63500500
AccurateRip v2 signature : EF9D916F
->Track not present in AccurateRip database.
Statistics
Read error : 0
Jitter error (maybe fixed) : 0
Retry sector count : 0
Damaged sector count : 0

Track 03
Filename : /Volumes/2015 FLAC/Sum 41 – 13 Voices (Japan Edition) (2016) [FLAC]/03 – Fake My Own Death.flac

Track gain : -12.98 dB
Peak : 0.982208
CRC32 hash (test run) : D5B924BE
CRC32 hash : D5B924BE
CRC32 hash (skip zero) : 62A32D7E
AccurateRip v1 signature : 4DE4B439
AccurateRip v2 signature : 6DA44024
->Track not present in AccurateRip database.
Statistics
Read error : 0
Jitter error (maybe fixed) : 0
Retry sector count : 0
Damaged sector count : 0

Track 04
Filename : /Volumes/2015 FLAC/Sum 41 – 13 Voices (Japan Edition) (2016) [FLAC]/04 – Breaking The Chain.flac

Track gain : -12.31 dB
Peak : 0.999969
CRC32 hash (test run) : 1C5B8A3E
CRC32 hash : 1C5B8A3E
CRC32 hash (skip zero) : CD0BF18B
AccurateRip v1 signature : 1EA7B009
AccurateRip v2 signature : ABC82632
->Track not present in AccurateRip database.
Statistics
Read error : 0
Jitter error (maybe fixed) : 0
Retry sector count : 0
Damaged sector count : 0

Track 05
Filename : /Volumes/2015 FLAC/Sum 41 – 13 Voices (Japan Edition) (2016) [FLAC]/05 – There Will Be Blood.flac

Track gain : -10.27 dB
Peak : 0.999969
CRC32 hash (test run) : 65809E75
CRC32 hash : 65809E75
CRC32 hash (skip zero) : C5A75A21
AccurateRip v1 signature : 3120BE87
AccurateRip v2 signature : 203287D7
->Track not present in AccurateRip database.
Statistics
Read error : 0
Jitter error (maybe fixed) : 0
Retry sector count : 0
Damaged sector count : 0

Track 06
Filename : /Volumes/2015 FLAC/Sum 41 – 13 Voices (Japan Edition) (2016) [FLAC]/06 – 13 Voices.flac

Track gain : -11.08 dB
Peak : 0.999969
CRC32 hash (test run) : BC597A9E
CRC32 hash : BC597A9E
CRC32 hash (skip zero) : 1CB10050
AccurateRip v1 signature : F55F2763
AccurateRip v2 signature : 1D4450A4
->Track not present in AccurateRip database.
Statistics
Read error : 0
Jitter error (maybe fixed) : 0
Retry sector count : 0
Damaged sector count : 0

Track 07
Filename : /Volumes/2015 FLAC/Sum 41 – 13 Voices (Japan Edition) (2016) [FLAC]/07 – War.flac

Track gain : -10.78 dB
Peak : 0.997711
CRC32 hash (test run) : 13433182
CRC32 hash : 13433182
CRC32 hash (skip zero) : 6D724AD3
AccurateRip v1 signature : 7BD1086E
AccurateRip v2 signature : A9C167EF
->Track not present in AccurateRip database.
Statistics
Read error : 0
Jitter error (maybe fixed) : 0
Retry sector count : 0
Damaged sector count : 0

Track 08
Filename : /Volumes/2015 FLAC/Sum 41 – 13 Voices (Japan Edition) (2016) [FLAC]/08 – God Save Us All (Death To Pop).flac

Track gain : -11.67 dB
Peak : 0.998840
CRC32 hash (test run) : D1729AD1
CRC32 hash : D1729AD1
CRC32 hash (skip zero) : 7E1D0649
AccurateRip v1 signature : C8138AB8
AccurateRip v2 signature : 362406DC
->Track not present in AccurateRip database.
Statistics
Read error : 0
Jitter error (maybe fixed) : 0
Retry sector count : 0
Damaged sector count : 0

Track 09
Filename : /Volumes/2015 FLAC/Sum 41 – 13 Voices (Japan Edition) (2016) [FLAC]/09 – The Fall And The Rise.flac

Track gain : -11.61 dB
Peak : 0.991577
CRC32 hash (test run) : ECA034ED
CRC32 hash : ECA034ED
CRC32 hash (skip zero) : 49F8595D
AccurateRip v1 signature : 5EE1002F
AccurateRip v2 signature : C6A33EA6
->Track not present in AccurateRip database.
Statistics
Read error : 0
Jitter error (maybe fixed) : 0
Retry sector count : 0
Damaged sector count : 0

Track 10
Filename : /Volumes/2015 FLAC/Sum 41 – 13 Voices (Japan Edition) (2016) [FLAC]/10 – Twisted By Design.flac

Track gain : -10.28 dB
Peak : 0.990875
CRC32 hash (test run) : F2B25682
CRC32 hash : F2B25682
CRC32 hash (skip zero) : 269058D0
AccurateRip v1 signature : 0A213EBF
AccurateRip v2 signature : F160043E
->Track not present in AccurateRip database.
Statistics
Read error : 0
Jitter error (maybe fixed) : 0
Retry sector count : 0
Damaged sector count : 0

Track 11
Filename : /Volumes/2015 FLAC/Sum 41 – 13 Voices (Japan Edition) (2016) [FLAC]/11 – War (feat. Taka of One Ok Rock).flac

Track gain : -11.10 dB
Peak : 0.987274
CRC32 hash (test run) : CC1AB20A
CRC32 hash : CC1AB20A
CRC32 hash (skip zero) : 7BA47771
AccurateRip v1 signature : 60F5BCDE
AccurateRip v2 signature : C99E4D7B
->Track not present in AccurateRip database.
Statistics
Read error : 0
Jitter error (maybe fixed) : 0
Retry sector count : 0
Damaged sector count : 0

Track 12
Filename : /Volumes/2015 FLAC/Sum 41 – 13 Voices (Japan Edition) (2016) [FLAC]/12 – Better Days.flac

Track gain : -9.99 dB
Peak : 0.977112
CRC32 hash (test run) : 69D3C9B7
CRC32 hash : 69D3C9B7
CRC32 hash (skip zero) : 85E26356
AccurateRip v1 signature : ACF480DE
AccurateRip v2 signature : 1142BB43
->Track not present in AccurateRip database.
Statistics
Read error : 0
Jitter error (maybe fixed) : 0
Retry sector count : 0
Damaged sector count : 0

Track 13
Filename : /Volumes/2015 FLAC/Sum 41 – 13 Voices (Japan Edition) (2016) [FLAC]/13 – Black Eyes.flac

Track gain : -9.84 dB
Peak : 0.977112
CRC32 hash (test run) : C50D8ED3
CRC32 hash : C50D8ED3
CRC32 hash (skip zero) : 26DA2F7D
AccurateRip v1 signature : 8E7AA3B9
AccurateRip v2 signature : C5C029FB
->Track not present in AccurateRip database.
Statistics
Read error : 0
Jitter error (maybe fixed) : 0
Retry sector count : 0
Damaged sector count : 0

Track 14
Filename : /Volumes/2015 FLAC/Sum 41 – 13 Voices (Japan Edition) (2016) [FLAC]/14 – War (Acoustic).flac

Track gain : -6.47 dB
Peak : 0.977112
CRC32 hash (test run) : 81E0C116
CRC32 hash : 81E0C116
CRC32 hash (skip zero) : 0D2E50CC
AccurateRip v1 signature : CDAC6E96
AccurateRip v2 signature : 49C2F998
->Track not present in AccurateRip database.
Statistics
Read error : 0
Jitter error (maybe fixed) : 0
Retry sector count : 0
Damaged sector count : 0

Track 15
Filename : /Volumes/2015 FLAC/Sum 41 – 13 Voices (Japan Edition) (2016) [FLAC]/15 – Breaking The Chain (Acoustic).flac

Track gain : -6.57 dB
Peak : 0.977112
CRC32 hash (test run) : D264F321
CRC32 hash : D264F321
CRC32 hash (skip zero) : ED706716
AccurateRip v1 signature : 8F596D6C
AccurateRip v2 signature : 29CA627C
->Track not present in AccurateRip database.
Statistics
Read error : 0
Jitter error (maybe fixed) : 0
Retry sector count : 0
Damaged sector count : 0

Track 16
Filename : /Volumes/2015 FLAC/Sum 41 – 13 Voices (Japan Edition) (2016) [FLAC]/16 – Radio Radio (Cover).flac

Track gain : -7.52 dB
Peak : 0.977112
CRC32 hash (test run) : B7152212
CRC32 hash : B7152212
CRC32 hash (skip zero) : 58BDDF0A
AccurateRip v1 signature : A35BB5D7
AccurateRip v2 signature : 7C11BAB3
->Track not present in AccurateRip database.
Statistics
Read error : 0
Jitter error (maybe fixed) : 0
Retry sector count : 0
Damaged sector count : 0

No errors occurred

End of status report

—–BEGIN XLD SIGNATURE—–
gS7ZZSBZZPEv9CeGGy0t0ZJJ9j0fonCeAmoMfeCZZJ6f.qqZs51ss8Nf7mid61oyjZRGaNpBzyi94XMQjABuoQZAe9Fgl9qYVmlgiFa
—–END XLD SIGNATURE—–

TITLE “13 Voices (Japan Edition)”
PERFORMER “Sum 41”
REM GENRE “Rock”
REM DATE “2016”
REM DISCID DF0D6610
REM REPLAYGAIN_ALBUM_GAIN -11.29 dB
REM REPLAYGAIN_ALBUM_PEAK 1.000000
FILE “01 – A Murder Of Crows.flac” WAVE
TRACK 01 AUDIO
TITLE “A Murder Of Crows”
PERFORMER “Sum 41”
REM REPLAYGAIN_TRACK_GAIN -9.57 dB
REM REPLAYGAIN_TRACK_PEAK 0.978394
INDEX 01 00:00:00
FILE “02 – God Damn I’m Dead Again.flac” WAVE
TRACK 02 AUDIO
TITLE “God Damn I’m Dead Again”
PERFORMER “Sum 41”
REM REPLAYGAIN_TRACK_GAIN -11.57 dB
REM REPLAYGAIN_TRACK_PEAK 1.000000
INDEX 01 00:00:00
FILE “03 – Fake My Own Death.flac” WAVE
TRACK 03 AUDIO
TITLE “Fake My Own Death”
PERFORMER “Sum 41”
REM REPLAYGAIN_TRACK_GAIN -12.98 dB
REM REPLAYGAIN_TRACK_PEAK 0.982208
INDEX 01 00:00:00
FILE “04 – Breaking The Chain.flac” WAVE
TRACK 04 AUDIO
TITLE “Breaking The Chain”
PERFORMER “Sum 41”
REM REPLAYGAIN_TRACK_GAIN -12.31 dB
REM REPLAYGAIN_TRACK_PEAK 0.999969
INDEX 01 00:00:00
FILE “05 – There Will Be Blood.flac” WAVE
TRACK 05 AUDIO
TITLE “There Will Be Blood”
PERFORMER “Sum 41”
REM REPLAYGAIN_TRACK_GAIN -10.27 dB
REM REPLAYGAIN_TRACK_PEAK 0.999969
INDEX 01 00:00:00
FILE “06 – 13 Voices.flac” WAVE
TRACK 06 AUDIO
TITLE “13 Voices”
PERFORMER “Sum 41”
REM REPLAYGAIN_TRACK_GAIN -11.08 dB
REM REPLAYGAIN_TRACK_PEAK 0.999969
INDEX 01 00:00:00
FILE “07 – War.flac” WAVE
TRACK 07 AUDIO
TITLE “War”
PERFORMER “Sum 41”
REM REPLAYGAIN_TRACK_GAIN -10.78 dB
REM REPLAYGAIN_TRACK_PEAK 0.997711
INDEX 01 00:00:00
FILE “08 – God Save Us All (Death To Pop).flac” WAVE
TRACK 08 AUDIO
TITLE “God Save Us All (Death To Pop)”
PERFORMER “Sum 41”
REM REPLAYGAIN_TRACK_GAIN -11.67 dB
REM REPLAYGAIN_TRACK_PEAK 0.998840
INDEX 01 00:00:00
FILE “09 – The Fall And The Rise.flac” WAVE
TRACK 09 AUDIO
TITLE “The Fall And The Rise”
PERFORMER “Sum 41”
REM REPLAYGAIN_TRACK_GAIN -11.61 dB
REM REPLAYGAIN_TRACK_PEAK 0.991577
INDEX 01 00:00:00
FILE “10 – Twisted By Design.flac” WAVE
TRACK 10 AUDIO
TITLE “Twisted By Design”
PERFORMER “Sum 41”
REM REPLAYGAIN_TRACK_GAIN -10.28 dB
REM REPLAYGAIN_TRACK_PEAK 0.990875
INDEX 01 00:00:00
FILE “11 – War (feat. Taka of One Ok Rock).flac” WAVE
TRACK 11 AUDIO
TITLE “War (feat. Taka of One Ok Rock)”
PERFORMER “Sum 41”
REM REPLAYGAIN_TRACK_GAIN -11.10 dB
REM REPLAYGAIN_TRACK_PEAK 0.987274
INDEX 01 00:00:00
FILE “12 – Better Days.flac” WAVE
TRACK 12 AUDIO
TITLE “Better Days”
PERFORMER “Sum 41”
REM REPLAYGAIN_TRACK_GAIN -9.99 dB
REM REPLAYGAIN_TRACK_PEAK 0.977112
INDEX 01 00:00:00
FILE “13 – Black Eyes.flac” WAVE
TRACK 13 AUDIO
TITLE “Black Eyes”
PERFORMER “Sum 41”
REM REPLAYGAIN_TRACK_GAIN -9.84 dB
REM REPLAYGAIN_TRACK_PEAK 0.977112
INDEX 01 00:00:00
FILE “14 – War (Acoustic).flac” WAVE
TRACK 14 AUDIO
TITLE “War (Acoustic)”
PERFORMER “Sum 41”
REM REPLAYGAIN_TRACK_GAIN -6.47 dB
REM REPLAYGAIN_TRACK_PEAK 0.977112
INDEX 01 00:00:00
FILE “15 – Breaking The Chain (Acoustic).flac” WAVE
TRACK 15 AUDIO
TITLE “Breaking The Chain (Acoustic)”
PERFORMER “Sum 41”
REM REPLAYGAIN_TRACK_GAIN -6.57 dB
REM REPLAYGAIN_TRACK_PEAK 0.977112
INDEX 01 00:00:00
FILE “16 – Radio Radio (Cover).flac” WAVE
TRACK 16 AUDIO
TITLE “Radio Radio (Cover)”
PERFORMER “Sum 41”
REM REPLAYGAIN_TRACK_GAIN -7.52 dB
REM REPLAYGAIN_TRACK_PEAK 0.977112
INDEX 01 00:00:00


Leave a Reply

Your email address will not be published. Required fields are marked *

This site uses Akismet to reduce spam. Learn how your comment data is processed.