Suicidal Tendencies – The Art Of Rebellion




Artist: Suicidal Tendencies
Year: 1992
Genre: Hardcore
Notes: Discogs
Add. Notes:
Cover incl.: Yes
Encoder: FLAC
Bitrate: ~1000 kBit/s (44.1 kHz/16 Bit/s)
Log & Cue incl.: Yes
Size: 444,58 MB
Password: “slam” (without ” “)


All Downloads/Hosters are compatible

Download 1
Turbobit.net
Rapidgator.net
UploadEver.com
KatFile.com
UsersDrive.com
Download 2
Turbobit.net
Rapidgator.net
UploadEver.com
KatFile.com
UsersDrive.com
Download 3
Turbobit.net
Rapidgator.net
UploadEver.com
KatFile.com
UsersDrive.com

Tracklist:

1 - Can't Stop - 6:38
2 - Accept My Sacrifice - 3:29
3 - Nobody Hears - 5:33
4 - Tap Into The Power - 3:43
5 - Monopoly On Sorrow - 5:13
6 - We Call This Mutha Revenge - 4:50
7 - I Wasn't Meant To Feel This / Asleep At The Wheel - 
7:07
8 - Gotta Kill Captain Stupid - 4:01
9 - I'll Hate You Better - 4:17
10 - Which Way To Free? - 4:30
11 - It's Going Down - 4:26
12 - Where's The Truth - 4:13

EAC-Log, CUE-Sheed & NFO:

Click to open spoiler
Exact Audio Copy V1.0 beta 3 from 29. August 2011

EAC extraction logfile from 16. February 2012, 20:10

Suicidal Tendencies / The Art Of Rebellion [Sony/Epic, 471885 2, UK]

Used drive : PIONEER DVD-RW DVR-112D Adapter: 1 ID: 0

Read mode : Secure
Utilize accurate stream : Yes
Defeat audio cache : Yes
Make use of C2 pointers : No

Read offset correction : 48
Overread into Lead-In and Lead-Out : No
Fill up missing offset samples with silence : Yes
Delete leading and trailing silent blocks : No
Null samples used in CRC calculations : Yes
Used interface : Installed external ASPI interface

Used output format : User Defined Encoder
Selected bitrate : 1024 kBit/s
Quality : High
Add ID3 tag : No
Command line compressor : C:\Program Files\Exact Audio Copy\FLAC\FLAC.EXE
Additional command line options : -V -8 -T “Date=%year%” -T “Genre=%genre%” %source%

TOC of the extracted CD

Track | Start | Length | Start sector | End sector
———————————————————
1 | 0:00.00 | 6:38.45 | 0 | 29894
2 | 6:38.45 | 3:29.60 | 29895 | 45629
3 | 10:08.30 | 5:33.65 | 45630 | 70669
4 | 15:42.20 | 3:43.37 | 70670 | 87431
5 | 19:25.57 | 5:13.13 | 87432 | 110919
6 | 24:38.70 | 4:50.42 | 110920 | 132711
7 | 29:29.37 | 7:07.13 | 132712 | 164749
8 | 36:36.50 | 4:01.45 | 164750 | 182869
9 | 40:38.20 | 4:17.45 | 182870 | 202189
10 | 44:55.65 | 4:30.07 | 202190 | 222446
11 | 49:25.72 | 4:26.70 | 222447 | 242466
12 | 53:52.67 | 4:14.10 | 242467 | 261526

Range status and errors

Selected range

Filename C:\CDRip by Deminbek\Suicidal Tendencies – The Art Of Rebellion [Sony,Epic, 471885 2, UK].wav

Peak level 97.3 %
Extraction speed 6.0 X
Range quality 99.9 %
Test CRC 644795B5
Copy CRC 644795B5
Copy OK

No errors occurred

AccurateRip summary

Track 1 accurately ripped (confidence 9) [DF0A2246] (AR v1)
Track 2 accurately ripped (confidence 9) [D3A82972] (AR v1)
Track 3 accurately ripped (confidence 9) [487BFDF5] (AR v1)
Track 4 accurately ripped (confidence 9) [0F062B46] (AR v1)
Track 5 accurately ripped (confidence 9) [FB3F2BAD] (AR v1)
Track 6 accurately ripped (confidence 9) [D4705605] (AR v1)
Track 7 accurately ripped (confidence 9) [BC87F681] (AR v1)
Track 8 accurately ripped (confidence 9) [88025938] (AR v1)
Track 9 accurately ripped (confidence 8) [E75F35C4] (AR v1)
Track 10 accurately ripped (confidence 9) [BFA8D6DD] (AR v1)
Track 11 accurately ripped (confidence 8) [D3641EAE] (AR v1)
Track 12 accurately ripped (confidence 9) [521B1DAC] (AR v1)

All tracks accurately ripped

End of status report

==== Log checksum AF6A9ED6521A39482FB4C8AC6C2493BE65F0E87DFA160C3C3D072156CAF21032 ====

REM GENRE “Heavy Metal”
REM DATE 1992
REM DISCID A40D9F0C
REM COMMENT “ExactAudioCopy v1.0b3”
PERFORMER “Suicidal Tendencies”
TITLE “The Art Of Rebellion [Sony/Epic, 471885 2, UK]”
FILE “Suicidal Tendencies – The Art Of Rebellion [Sony,Epic, 471885 2, UK].flac” WAVE
TRACK 01 AUDIO
TITLE “Can’t Stop”
PERFORMER “Suicidal Tendencies”
INDEX 01 00:00:00
TRACK 02 AUDIO
TITLE “Accept My Sacrifice”
PERFORMER “Suicidal Tendencies”
INDEX 00 06:38:30
INDEX 01 06:38:45
TRACK 03 AUDIO
TITLE “Nobody Hears”
PERFORMER “Suicidal Tendencies”
INDEX 00 10:07:55
INDEX 01 10:08:30
TRACK 04 AUDIO
TITLE “Tap Into The Power”
PERFORMER “Suicidal Tendencies”
INDEX 00 15:41:05
INDEX 01 15:42:20
TRACK 05 AUDIO
TITLE “Monopoly On Sorrow”
PERFORMER “Suicidal Tendencies”
INDEX 00 19:24:40
INDEX 01 19:25:57
TRACK 06 AUDIO
TITLE “We Call This Mutha Revenge”
PERFORMER “Suicidal Tendencies”
INDEX 00 24:37:08
INDEX 01 24:38:70
TRACK 07 AUDIO
TITLE “I Wasn’t Meant To Feel This/Asleep At The Wheel”
PERFORMER “Suicidal Tendencies”
INDEX 00 29:28:02
INDEX 01 29:29:37
TRACK 08 AUDIO
TITLE “Gotta Kill Captain Stupid”
PERFORMER “Suicidal Tendencies”
INDEX 00 36:35:38
INDEX 01 36:36:50
TRACK 09 AUDIO
TITLE “I’ll Hate You Better”
PERFORMER “Suicidal Tendencies”
INDEX 00 40:36:50
INDEX 01 40:38:20
TRACK 10 AUDIO
TITLE “Which Way To Free?”
PERFORMER “Suicidal Tendencies”
INDEX 00 44:54:52
INDEX 01 44:55:65
TRACK 11 AUDIO
TITLE “It’s Going Down”
PERFORMER “Suicidal Tendencies”
INDEX 00 49:23:00
INDEX 01 49:25:72
TRACK 12 AUDIO
TITLE “Where’s The Truth”
PERFORMER “Suicidal Tendencies”
INDEX 00 53:52:62
INDEX 01 53:52:67


Leave a Reply

Your email address will not be published. Required fields are marked *

This site uses Akismet to reduce spam. Learn how your comment data is processed.