Suicidal Tendencies – The Art Of Rebellion (Japanese Edition)




No Cover available

Artist: Suicidal Tendencies
Year: 1992
Genre: Hardcore
Notes: Discogs
Add. Notes: Japanese Edition
Watch Songs on: YouTube
Cover incl.: Yes
Encoder: FLAC
Bitrate: ~1000 kBit/s (44.1 kHz/16 Bit/s)
Log & Cue incl.: Yes
Size: 951,25 MB
Password: “slam” (without ” “)


All Downloads/Hosters are compatible

Download 1
KatFile.com
Turbobit.net
FileFactory.com
Rapidgator.net
Download 2
KatFile.com
Turbobit.net
FileFactory.com
Rapidgator.net

Tracklist:

1 - Can't Stop - 6:39
2 - Accept My Sacrifice - 3:29
3 - Nobody Hears - 5:33
4 - Tap Into The Power - 3:43
5 - Monopoly On Sorrow - 5:13
6 - We Call This Mutha Revenge - 4:50
7 - I Wasn't Meant To Feel This / Asleep At The Wheel - 
7:07
8 - Gotta Kill Captain Stupid - 4:01
9 - I'll Hate You Better - 4:17
10 - Which Way To Free? - 4:30
11 - It's Going Down - 4:26
12 - Where's The Truth - 4:14

EAC-Log, CUE-Sheed & NFO:

Click to open spoiler
Exact Audio Copy V1.0 beta 3 from 29. August 2011

EAC extraction logfile from 21. August 2013, 8:54

Suicidal Tendencies / The Art Of Rebellion [Epic-Sony, ESCA 5640, Japan]

Used drive : PIONEER DVD-RW DVR-112D Adapter: 0 ID: 0

Read mode : Secure
Utilize accurate stream : Yes
Defeat audio cache : Yes
Make use of C2 pointers : No

Read offset correction : 48
Overread into Lead-In and Lead-Out : No
Fill up missing offset samples with silence : Yes
Delete leading and trailing silent blocks : No
Null samples used in CRC calculations : Yes
Used interface : Installed external ASPI interface

Used output format : User Defined Encoder
Selected bitrate : 1024 kBit/s
Quality : High
Add ID3 tag : No
Command line compressor : C:\Program Files\Exact Audio Copy\FLAC\FLAC.EXE
Additional command line options : -V -8 -T “Date=%year%” -T “Genre=%genre%” %source%

TOC of the extracted CD

Track | Start | Length | Start sector | End sector
———————————————————
1 | 0:00.00 | 6:38.47 | 0 | 29896
2 | 6:38.47 | 3:29.60 | 29897 | 45631
3 | 10:08.32 | 5:33.65 | 45632 | 70671
4 | 15:42.22 | 3:43.38 | 70672 | 87434
5 | 19:25.60 | 5:13.12 | 87435 | 110921
6 | 24:38.72 | 4:50.43 | 110922 | 132714
7 | 29:29.40 | 7:07.12 | 132715 | 164751
8 | 36:36.52 | 4:01.45 | 164752 | 182871
9 | 40:38.22 | 4:17.45 | 182872 | 202191
10 | 44:55.67 | 4:30.08 | 202192 | 222449
11 | 49:26.00 | 4:26.70 | 222450 | 242469
12 | 53:52.70 | 4:14.22 | 242470 | 261541

Range status and errors

Selected range

Filename C:\CDRip by Deminbek\Suicidal Tendencies – The Art Of Rebellion [Epic-Sony, ESCA 5640, Japan].wav

Peak level 97.3 %
Extraction speed 6.7 X
Range quality 99.9 %
Test CRC 42F63DF1
Copy CRC 42F63DF1
Copy OK

No errors occurred

AccurateRip summary

Track 1 not present in database
Track 2 not present in database
Track 3 not present in database
Track 4 not present in database
Track 5 not present in database
Track 6 not present in database
Track 7 not present in database
Track 8 not present in database
Track 9 not present in database
Track 10 not present in database
Track 11 not present in database
Track 12 not present in database

None of the tracks are present in the AccurateRip database

End of status report

—- CUETools DB Plugin V2.1.3

[CTDB TOCID: ImCwt1LNc8BaT6szwW6jg1UbkN4-] disk not present in database, Submit result: ImCwt1LNc8BaT6szwW6jg1UbkN4- has been uploaded

==== Log checksum 368085052D9EE36A18E46B09C373E5D2BEB9FD38CBEF6EA822B4B7AA3D13E78C ====

REM GENRE “Heavy Metal”
REM DATE 1992
REM DISCID A50D9F0C
REM COMMENT “ExactAudioCopy v1.0b3”
PERFORMER “Suicidal Tendencies”
TITLE “The Art Of Rebellion [Epic-Sony, ESCA 5640, Japan]”
FILE “Suicidal Tendencies – The Art Of Rebellion [Epic-Sony, ESCA 5640, Japan].flac” WAVE
TRACK 01 AUDIO
TITLE “Can’t Stop”
PERFORMER “Suicidal Tendencies”
INDEX 01 00:00:00
TRACK 02 AUDIO
TITLE “Accept My Sacrifice”
PERFORMER “Suicidal Tendencies”
INDEX 01 06:38:47
TRACK 03 AUDIO
TITLE “Nobody Hears”
PERFORMER “Suicidal Tendencies”
INDEX 01 10:08:32
TRACK 04 AUDIO
TITLE “Tap Into The Power”
PERFORMER “Suicidal Tendencies”
INDEX 01 15:42:22
TRACK 05 AUDIO
TITLE “Monopoly On Sorrow”
PERFORMER “Suicidal Tendencies”
INDEX 01 19:25:60
TRACK 06 AUDIO
TITLE “We Call This Mutha Revenge”
PERFORMER “Suicidal Tendencies”
INDEX 00 24:37:47
INDEX 01 24:38:72
TRACK 07 AUDIO
TITLE “I Wasn’t Meant To Feel This/ Asleep At The Wheel”
PERFORMER “Suicidal Tendencies”
INDEX 01 29:29:40
TRACK 08 AUDIO
TITLE “Gotta Kill Captain Stupid”
PERFORMER “Suicidal Tendencies”
INDEX 00 36:35:45
INDEX 01 36:36:52
TRACK 09 AUDIO
TITLE “I’ll Hate You Better”
PERFORMER “Suicidal Tendencies”
INDEX 01 40:38:22
TRACK 10 AUDIO
TITLE “Which Way To Free?”
PERFORMER “Suicidal Tendencies”
INDEX 01 44:55:67
TRACK 11 AUDIO
TITLE “It’s Going Down”
PERFORMER “Suicidal Tendencies”
INDEX 00 49:24:30
INDEX 01 49:26:00
TRACK 12 AUDIO
TITLE “Where’s The Truth”
PERFORMER “Suicidal Tendencies”
INDEX 01 53:52:70


Leave a Reply

Your email address will not be published. Required fields are marked *

This site uses Akismet to reduce spam. Learn how your comment data is processed.