Suicidal Tendencies – Suicidal Tendencies




Artist: Suicidal Tendencies
Year: 1983/1987
Genre: Punk
Notes: Discogs
Add. Notes:
Cover incl.: Yes
Encoder: FLAC
Bitrate: ~900 kBit/s (44.1 kHz/16 Bit/s)
Log & Cue incl.: Yes
Size: 239,15 MB
Password: “slam” (without ” “)


All Downloads/Hosters are compatible

Download 1
Turbobit.net
Rapidgator.net
UploadEver.com
KatFile.com
UsersDrive.com
Download 2
Turbobit.net
Rapidgator.net
UploadEver.com
KatFile.com
UsersDrive.com
Download 3
Turbobit.net
Rapidgator.net
UploadEver.com
KatFile.com
UsersDrive.com

Tracklist:

1 - Suicide's An Alternative - 2:45
2 - Two Sides Politics - 1:04
3 - I Shot The Devil - 1:52
4 - Subliminal - 3:09
5 - Won't Fall In Love Today - 1:00
6 - Institutionalised - 3:50
7 - Memories Of Tomorrow - 1:00
8 - Possessed - 2:09
9 - I Saw Your Mommy... - 4:53
10 - Fascist Pig - 1:18
11 - I Want More - 2:28
12 - Suicidal Failure - 2:54
13 - Possessed To Skate - 2:31
14 - Human Guinea Pig - 2:05
15 - Two Wrongs Don't Make A Right - 2:48

EAC-Log, CUE-Sheed & NFO:

Click to open spoiler
EAC extraction logfile from 15. February 2008, 10:45 for CD
Suicidal Tendencies / Suicidal Tendencies

Used drive : TSSTcorpCD/DVDW SH-S162L Adapter: 2 ID: 2
Read mode : Secure with NO C2, accurate stream, disable cache
Read offset correction : 6
Overread into Lead-In and Lead-Out : No

Used output format : C:\Archivos de programa\FLAC\flac.exe (User Defined Encoder)
128 kBit/s
Additional command line options : -6 -V %s

Other options :
Fill up missing offset samples with silence : Yes
Delete leading and trailing silent blocks : No
Native Win32 interface for Win NT & 2000

Range status and errors
Selected range
Filename G:\Mus\Releases\Suicidal Tendencies- Suicidal Tendencies\Suicidal Tendencies – Suicidal Tendencies.wav.wav

Peak level 100.0 %
Range quality 99.9 %
CRC A1F980C7
Copy OK

No errors occured

End of status report

REM GENRE Hardcore/Thrash Metal/Crossover
REM DATE 1983
REM DISCID B1085F0F
REM COMMENT ExactAudioCopy v0.95b4
PERFORMER “Suicidal Tendencies”
TITLE “Suicidal Tendencies”
FILE “Suicidal Tendencies – Suicidal Tendencies.flac” WAVE
TRACK 01 AUDIO
TITLE “Suicide’s An Alternative / You’ll Be Sorry”
INDEX 01 00:00:00
TRACK 02 AUDIO
TITLE “Two Sides Politics”
INDEX 01 02:45:15
TRACK 03 AUDIO
TITLE “I Shot The Devil”
INDEX 01 03:48:65
TRACK 04 AUDIO
TITLE “Subliminal”
INDEX 01 05:40:32
TRACK 05 AUDIO
TITLE “Won’t Fall In Love Today”
INDEX 01 08:49:32
TRACK 06 AUDIO
TITLE “Institutionalised”
INDEX 01 09:49:25
TRACK 07 AUDIO
TITLE “Memories Of Tomorrow”
INDEX 01 13:39:30
TRACK 08 AUDIO
TITLE “Possessed”
INDEX 01 14:38:70
TRACK 09 AUDIO
TITLE “I Saw Your Mommy”
INDEX 01 16:47:35
TRACK 10 AUDIO
TITLE “Fascist Pig”
INDEX 00 21:40:21
INDEX 01 21:40:22
TRACK 11 AUDIO
TITLE “I Want More”
INDEX 01 22:58:17
TRACK 12 AUDIO
TITLE “Suicidal Failure”
INDEX 01 25:26:22
TRACK 13 AUDIO
TITLE “Possessed To Skate”
INDEX 01 28:20:40
TRACK 14 AUDIO
TITLE “Human Guinea Pig”
INDEX 01 30:51:35
TRACK 15 AUDIO
TITLE “Two Wrongs Don’t Make A Right (But They Make Me Feel A Lot Better)”
INDEX 01 32:56:15

Leave a Reply

Your email address will not be published. Required fields are marked *

This site uses Akismet to reduce spam. Learn how your comment data is processed.