Suicidal Tendencies – Suicidal For Life (Remastered)




Artist: Suicidal Tendencies
Year: 1994/2008
Genre: Metal
Notes: Discogs
Add. Notes: Remastered
Cover incl.: Yes
Encoder: FLAC
Bitrate: ~1000 kBit/s (44.1 kHz/16 Bit/s)
Log & Cue incl.: Yes
Size: 416,71 MB
Password: “slam” (without ” “)


All Downloads/Hosters are compatible

Download 1
Turbobit.net
Rapidgator.net
UploadEver.com
KatFile.com
UsersDrive.com
Download 2
Turbobit.net
Rapidgator.net
UploadEver.com
KatFile.com
UsersDrive.com
Download 3
Turbobit.net
Rapidgator.net
UploadEver.com
KatFile.com
UsersDrive.com

Tracklist:

1. Invocation 
2. Don't Give A Fuck 
3. No Fuck'n Problem 
4. Suicyco Muthafucka 
5. Fucked Up Just Right 
6. No Bullshit 
7. What Else Could I Do 
8. What You Need's A Friend 
9. I Wouldn't Mind 
10. Depression And Anguish 
11. Evil 
12. Love Vs Loneliness 
13. Benediction

EAC-Log, CUE-Sheed & NFO:

Click to open spoiler
Exact Audio Copy V1.0 beta 3 from 29. August 2011

EAC extraction logfile from 16. February 2012, 20:51

Suicidal Tendencies / Suicidal For Life [2008, SPV 42852, Germany]

Used drive : PIONEER DVD-RW DVR-112D Adapter: 1 ID: 0

Read mode : Secure
Utilize accurate stream : Yes
Defeat audio cache : Yes
Make use of C2 pointers : No

Read offset correction : 48
Overread into Lead-In and Lead-Out : No
Fill up missing offset samples with silence : Yes
Delete leading and trailing silent blocks : No
Null samples used in CRC calculations : Yes
Used interface : Installed external ASPI interface

Used output format : User Defined Encoder
Selected bitrate : 1024 kBit/s
Quality : High
Add ID3 tag : No
Command line compressor : C:\Program Files\Exact Audio Copy\FLAC\FLAC.EXE
Additional command line options : -V -8 -T “Date=%year%” -T “Genre=%genre%” %source%

TOC of the extracted CD

Track | Start | Length | Start sector | End sector
———————————————————
1 | 0:00.00 | 0:59.62 | 0 | 4486
2 | 0:59.62 | 2:46.09 | 4487 | 16945
3 | 3:45.71 | 3:32.23 | 16946 | 32868
4 | 7:18.19 | 4:27.62 | 32869 | 52955
5 | 11:46.06 | 4:59.37 | 52956 | 75417
6 | 16:45.43 | 3:14.16 | 75418 | 89983
7 | 19:59.59 | 5:59.31 | 89984 | 116939
8 | 25:59.15 | 3:55.67 | 116940 | 134631
9 | 29:55.07 | 4:23.27 | 134632 | 154383
10 | 34:18.34 | 3:03.09 | 154384 | 168117
11 | 37:21.43 | 3:44.06 | 168118 | 184923
12 | 41:05.49 | 6:56.44 | 184924 | 216167
13 | 48:02.18 | 1:01.11 | 216168 | 220753

Range status and errors

Selected range

Filename C:\CDRip by Deminbek\Suicidal Tendencies – Suicidal For Life [2008, SPV 42852, Germany].wav

Peak level 100.0 %
Extraction speed 6.8 X
Range quality 99.9 %
Test CRC 76A22AE4
Copy CRC 76A22AE4
Copy OK

No errors occurred

AccurateRip summary

Track 1 accurately ripped (confidence 1) [A7FF8B0F] (AR v1)
Track 2 accurately ripped (confidence 1) [88417707] (AR v1)
Track 3 accurately ripped (confidence 1) [EB6A6B51] (AR v1)
Track 4 accurately ripped (confidence 1) [F63B99B4] (AR v1)
Track 5 accurately ripped (confidence 1) [93670BAC] (AR v1)
Track 6 accurately ripped (confidence 1) [650FC506] (AR v1)
Track 7 accurately ripped (confidence 1) [CC10385C] (AR v1)
Track 8 accurately ripped (confidence 1) [F2A2A8D0] (AR v1)
Track 9 accurately ripped (confidence 1) [DD76FF71] (AR v1)
Track 10 accurately ripped (confidence 1) [E351133C] (AR v1)
Track 11 accurately ripped (confidence 1) [09980F13] (AR v1)
Track 12 accurately ripped (confidence 1) [C8702156] (AR v1)
Track 13 accurately ripped (confidence 1) [D5E08FA2] (AR v1)

All tracks accurately ripped

End of status report

==== Log checksum E934A4AA32DFFC61CF831E224239CB5935A4EC40488D2130FE09C4814AF2FCD5 ====

REM GENRE “Heavy Metal”
REM DATE 1994
REM DISCID 980B7F0D
REM COMMENT “ExactAudioCopy v1.0b3”
PERFORMER “Suicidal Tendencies”
TITLE “Suicidal For Life [2008, SPV 42852, Germany]”
FILE “Suicidal Tendencies – Suicidal For Life [2008, SPV 42852, Germany].flac” WAVE
TRACK 01 AUDIO
TITLE “Invocation”
PERFORMER “Suicidal Tendencies”
ISRC USSM10022135
INDEX 01 00:00:00
TRACK 02 AUDIO
TITLE “Don’t Give A Fuck”
PERFORMER “Suicidal Tendencies”
ISRC USSM10022136
INDEX 01 00:59:62
TRACK 03 AUDIO
TITLE “No Fuck’n Problem”
PERFORMER “Suicidal Tendencies”
ISRC USSM10022137
INDEX 00 03:43:71
INDEX 01 03:45:71
TRACK 04 AUDIO
TITLE “Suicyco Muthafucka”
PERFORMER “Suicidal Tendencies”
ISRC USSM10024920
INDEX 00 07:16:19
INDEX 01 07:18:19
TRACK 05 AUDIO
TITLE “Fucked Up Just Right!”
PERFORMER “Suicidal Tendencies”
ISRC USSM10022138
INDEX 00 11:44:06
INDEX 01 11:46:06
TRACK 06 AUDIO
TITLE “No Bullshit”
PERFORMER “Suicidal Tendencies”
ISRC USSM10022139
INDEX 00 16:43:43
INDEX 01 16:45:43
TRACK 07 AUDIO
TITLE “What Else Could I Do”
PERFORMER “Suicidal Tendencies”
ISRC USSM10022140
INDEX 00 19:57:59
INDEX 01 19:59:59
TRACK 08 AUDIO
TITLE “What You Need’s A Friend”
PERFORMER “Suicidal Tendencies”
ISRC USSM10024919
INDEX 00 25:57:15
INDEX 01 25:59:15
TRACK 09 AUDIO
TITLE “I Wouldn’t Mind”
PERFORMER “Suicidal Tendencies”
ISRC USSM10022132
INDEX 00 29:53:07
INDEX 01 29:55:07
TRACK 10 AUDIO
TITLE “Depression And Anguish”
PERFORMER “Suicidal Tendencies”
ISRC USSM10022133
INDEX 00 34:16:34
INDEX 01 34:18:34
TRACK 11 AUDIO
TITLE “Evil”
PERFORMER “Suicidal Tendencies”
ISRC USSM10022134
INDEX 00 37:19:43
INDEX 01 37:21:43
TRACK 12 AUDIO
TITLE “Love vs Loneliness”
PERFORMER “Suicidal Tendencies”
ISRC USSM10020902
INDEX 00 41:03:49
INDEX 01 41:05:49
TRACK 13 AUDIO
TITLE “Benediction”
PERFORMER “Suicidal Tendencies”
ISRC USSM10025374
INDEX 00 48:00:18
INDEX 01 48:02:18


Leave a Reply

Your email address will not be published. Required fields are marked *

This site uses Akismet to reduce spam. Learn how your comment data is processed.