Suicidal Tendencies – Still Cyco After All These Years




Artist: Suicidal Tendencies
Year: 1993
Genre: Hardcore
Notes: Discogs
Add. Notes:
Cover incl.: Yes
Encoder: FLAC
Bitrate: ~1000 kBit/s (44.1 kHz/16 Bit/s)
Log & Cue incl.: Yes
Size: 282,6 MB
Password: “slam” (without ” “)


All Downloads/Hosters are compatible

Download 1
KatFile.com
Turbobit.net
Rapidgator.net
Usersdrive.com
Download 2
KatFile.com
Turbobit.net
Rapidgator.net
Usersdrive.com

Tracklist:

1 - Suicide's An Alternative - 2:26
2 - Two-Sided Politics - 1:02
3 - Subliminal - 2:48
4 - I Shot The Devil - 1:50
5 - Won't Fall In Love Today - 0:50
6 - Institutionalized - 3:30
7 - War Inside My Head - 3:28
8 - Don't Give Me Your Nothin' - 4:03
9 - Memories Of Tomorrow - 0:54
10 - Possessed - 2:01
11 - I Saw Your Mommy - 4:51
12 - Fascist Pig - 1:12
13 - A Little Each Day - 3:52
14 - I Want More - 2:09
15 - Suicidal Failure - 2:39

EAC-Log, CUE-Sheed & NFO:

Click to open spoiler
EAC extraction logfile from 24. June 2007, 0:01 for CD
Suicidal Tendencies / Still Cyco After All These Years

Used drive : SONY CD-RW CRX225E Adapter: 0 ID: 1
Read mode : Secure with NO C2, accurate stream, disable cache
Read offset correction : 6
Overread into Lead-In and Lead-Out : No

Used output format : C:\Archivos de programa\Exact Audio Copy\FLAC.EXE (User Defined Encoder)
32 kBit/s
Additional command line options : -6 -V -T “artist=%a” -T “title=%t” -T “album=%g” -T “date=%y” -T “tracknumber=%n” -T “genre=%m” -T “comment=EAC 0.9beta4 / FLAC 1.1.0 q6” %s

Other options :
Fill up missing offset samples with silence : Yes
Delete leading and trailing silent blocks : No
Native Win32 interface for Win NT & 2000

Range status and errors
Selected range
Filename D:\MMT\SUICIDAL TENDENCIES [1993] [CD] STILL CYCO AFTER ALL THIS YEARS [EAC-FLAC] BY APHET [MeTaLMaDNeSS.TeaM]\Still Cyco After All This Years.FLAC.wav

Peak level 100.0 %
Range quality 100.0 %
CRC EB31420E
Copy OK

No errors occured

End of status report

PERFORMER “Suicidal Tendencies”
TITLE “Still Cyco After All These Years”
FILE “Suicidal Tendencies – Still Cyco After All These Years.FLAC” WAVE
TRACK 01 AUDIO
TITLE “Suicide’s An Alternative / You’ll Be Sorry”
PERFORMER “Suicidal Tendencies”
INDEX 01 00:00:00
TRACK 02 AUDIO
TITLE “Two-Sided Politics”
PERFORMER “Suicidal Tendencies”
INDEX 00 02:25:45
INDEX 01 02:26:00
TRACK 03 AUDIO
TITLE “Subliminal”
PERFORMER “Suicidal Tendencies”
INDEX 00 03:28:33
INDEX 01 03:28:65
TRACK 04 AUDIO
TITLE “I Shot Reagan”
PERFORMER “Suicidal Tendencies”
INDEX 00 06:14:64
INDEX 01 06:16:67
TRACK 05 AUDIO
TITLE “Won’t Fall In Love Today”
PERFORMER “Suicidal Tendencies”
INDEX 01 08:07:20
TRACK 06 AUDIO
TITLE “Institutionalized”
PERFORMER “Suicidal Tendencies”
INDEX 00 08:57:28
INDEX 01 08:58:12
TRACK 07 AUDIO
TITLE “War Inside My Head”
PERFORMER “Suicidal Tendencies”
INDEX 00 12:27:17
INDEX 01 12:28:32
TRACK 08 AUDIO
TITLE “Don’t Give Me Your Nothin'”
PERFORMER “Suicidal Tendencies”
INDEX 00 15:56:74
INDEX 01 15:57:27
TRACK 09 AUDIO
TITLE “Memories Of Tomorrow”
PERFORMER “Suicidal Tendencies”
INDEX 00 20:00:41
INDEX 01 20:00:70
TRACK 10 AUDIO
TITLE “Possessed”
PERFORMER “Suicidal Tendencies”
INDEX 00 20:55:35
INDEX 01 20:55:55
TRACK 11 AUDIO
TITLE “I Saw Your Mommy”
PERFORMER “Suicidal Tendencies”
INDEX 00 22:56:06
INDEX 01 22:57:45
TRACK 12 AUDIO
TITLE “Fascist Pig”
PERFORMER “Suicidal Tendencies”
INDEX 00 27:47:26
INDEX 01 27:49:05
TRACK 13 AUDIO
TITLE “A Little Each Day”
PERFORMER “Suicidal Tendencies”
INDEX 00 29:01:11
INDEX 01 29:01:67
TRACK 14 AUDIO
TITLE “I Want More”
PERFORMER “Suicidal Tendencies”
INDEX 00 32:53:44
INDEX 01 32:54:05
TRACK 15 AUDIO
TITLE “Suicidal Failure”
PERFORMER “Suicidal Tendencies”
INDEX 00 35:02:11
INDEX 01 35:03:20


Leave a Reply

Your email address will not be published. Required fields are marked *

Enter the text from the image below
 

This site uses Akismet to reduce spam. Learn how your comment data is processed.