Suicidal Tendencies – Still Cyco After All These Years (Japanese Edition)




Artist: Suicidal Tendencies
Year: 1993
Genre: Hardcore
Notes: Discogs
Add. Notes: Japanese Edition
Cover incl.: Yes
Encoder: FLAC
Bitrate: ~1000 kBit/s (44.1 kHz/16 Bit/s)
Log & Cue incl.: Yes
Size: 300,11 MB
Password: “slam” (without ” “)


All Downloads/Hosters are compatible

Download 1
Turbobit.net
Rapidgator.net
KatFile.com
UploadRar.com
Download 2
Turbobit.net
Rapidgator.net
KatFile.com
UploadRar.com

Tracklist:

1 - Suicide's An Alternative - 2:26
2 - Two-Sided Politics - 1:02
3 - Subliminal - 2:48
4 - I Shot The Devil - 1:50
5 - Won't Fall In Love Today - 0:50
6 - Institutionalized - 3:30
7 - War Inside My Head - 3:28
8 - Don't Give Me Your Nothin' - 4:03
9 - Memories Of Tomorrow - 0:54
10 - Possessed - 2:01
11 - I Saw Your Mommy - 4:51
12 - Fascist Pig - 1:12
13 - A Little Each Day - 3:52
14 - I Want More - 2:09
15 - Suicidal Failure - 2:39

EAC-Log, CUE-Sheed & NFO:

Click to open spoiler
Exact Audio Copy V1.0 beta 3 from 29. August 2011

EAC extraction logfile from 9. July 2013, 22:04

Suicidal Tendencies / Still Cyco After All These Years [Epic-Sony, ESCA 5779, Japan]

Used drive : PIONEER DVD-RW DVR-112D Adapter: 0 ID: 0

Read mode : Secure
Utilize accurate stream : Yes
Defeat audio cache : Yes
Make use of C2 pointers : No

Read offset correction : 48
Overread into Lead-In and Lead-Out : No
Fill up missing offset samples with silence : Yes
Delete leading and trailing silent blocks : No
Null samples used in CRC calculations : Yes
Used interface : Installed external ASPI interface

Used output format : User Defined Encoder
Selected bitrate : 1024 kBit/s
Quality : High
Add ID3 tag : No
Command line compressor : C:\Program Files\Exact Audio Copy\FLAC\FLAC.EXE
Additional command line options : -V -8 -T “Date=%year%” -T “Genre=%genre%” %source%

TOC of the extracted CD

Track | Start | Length | Start sector | End sector
———————————————————
1 | 0:00.00 | 2:25.57 | 0 | 10931
2 | 2:25.57 | 1:02.60 | 10932 | 15641
3 | 3:28.42 | 2:48.08 | 15642 | 28249
4 | 6:16.50 | 1:50.17 | 28250 | 36516
5 | 8:06.67 | 0:51.20 | 36517 | 40361
6 | 8:58.12 | 3:30.13 | 40362 | 56124
7 | 12:28.25 | 3:28.55 | 56125 | 71779
8 | 15:57.05 | 4:03.52 | 71780 | 90056
9 | 20:00.57 | 0:54.48 | 90057 | 94154
10 | 20:55.30 | 2:01.67 | 94155 | 103296
11 | 22:57.22 | 4:51.48 | 103297 | 125169
12 | 27:48.70 | 1:12.50 | 125170 | 130619
13 | 29:01.45 | 3:52.12 | 130620 | 148031
14 | 32:53.57 | 2:09.23 | 148032 | 157729
15 | 35:03.05 | 2:41.25 | 157730 | 169829

Range status and errors

Selected range

Filename C:\CDRip by Deminbek\Suicidal Tendencies – Still Cyco After All These Years [Epic-Sony, ESCA 5779, Japan].wav

Peak level 100.0 %
Extraction speed 6.4 X
Range quality 99.9 %
Test CRC 3127CC12
Copy CRC 3127CC12
Copy OK

No errors occurred

AccurateRip summary

Track 1 accurately ripped (confidence 1) [029FE3C1] (AR v1)
Track 2 accurately ripped (confidence 1) [6BEAA75D] (AR v1)
Track 3 accurately ripped (confidence 1) [8DFD923B] (AR v1)
Track 4 accurately ripped (confidence 1) [5F5233A8] (AR v1)
Track 5 accurately ripped (confidence 1) [F7E7FCC0] (AR v1)
Track 6 accurately ripped (confidence 1) [1A3095CA] (AR v1)
Track 7 accurately ripped (confidence 1) [C9D821D6] (AR v1)
Track 8 accurately ripped (confidence 1) [99BAE4CB] (AR v1)
Track 9 accurately ripped (confidence 1) [3FBF649D] (AR v1)
Track 10 accurately ripped (confidence 1) [0CB088BB] (AR v1)
Track 11 accurately ripped (confidence 1) [4330B189] (AR v1)
Track 12 accurately ripped (confidence 1) [57403796] (AR v1)
Track 13 accurately ripped (confidence 1) [606325BE] (AR v1)
Track 14 accurately ripped (confidence 1) [EA93C975] (AR v1)
Track 15 accurately ripped (confidence 1) [87ADA356] (AR v1)

All tracks accurately ripped

End of status report

—- CUETools DB Plugin V2.1.3

[CTDB TOCID: _dLSfVvd25zeYVTZ26.NhSy6.rU-] disk not present in database, Submit result: _dLSfVvd25zeYVTZ26.NhSy6.rU- has been uploaded

==== Log checksum 5D234598607DB1612B297FD584BA4E4C49DA9FE8A3621C0843AA7461FA2E074C ====

REM GENRE “Heavy Metal”
REM DATE 1993
REM DISCID C608D80F
REM COMMENT “ExactAudioCopy v1.0b3”
PERFORMER “Suicidal Tendencies”
TITLE “Still Cyco After All These Years [Epic-Sony, ESCA 5779, Japan]”
FILE “Suicidal Tendencies – Still Cyco After All These Years [Epic-Sony, ESCA 5779, Japan].flac” WAVE
TRACK 01 AUDIO
TITLE “Suicide’s an Alternative”
PERFORMER “Suicidal Tendencies”
INDEX 01 00:00:00
TRACK 02 AUDIO
TITLE “Two-Sided Politics”
PERFORMER “Suicidal Tendencies”
INDEX 01 02:25:57
TRACK 03 AUDIO
TITLE “Subliminal”
PERFORMER “Suicidal Tendencies”
INDEX 01 03:28:42
TRACK 04 AUDIO
TITLE “I Shot the Devil”
PERFORMER “Suicidal Tendencies”
INDEX 01 06:16:50
TRACK 05 AUDIO
TITLE “Won’t Fall in Love Today”
PERFORMER “Suicidal Tendencies”
INDEX 01 08:06:67
TRACK 06 AUDIO
TITLE “Institutionalized”
PERFORMER “Suicidal Tendencies”
INDEX 01 08:58:12
TRACK 07 AUDIO
TITLE “War Inside My Head”
PERFORMER “Suicidal Tendencies”
INDEX 01 12:28:25
TRACK 08 AUDIO
TITLE “Don’t Give Me Your Nothin'”
PERFORMER “Suicidal Tendencies”
INDEX 01 15:57:05
TRACK 09 AUDIO
TITLE “Memories of Tomorrow”
PERFORMER “Suicidal Tendencies”
INDEX 01 20:00:57
TRACK 10 AUDIO
TITLE “Possessed”
PERFORMER “Suicidal Tendencies”
INDEX 01 20:55:30
TRACK 11 AUDIO
TITLE “I Saw Your Mommy”
PERFORMER “Suicidal Tendencies”
INDEX 01 22:57:22
TRACK 12 AUDIO
TITLE “Fascist Pig”
PERFORMER “Suicidal Tendencies”
INDEX 01 27:48:70
TRACK 13 AUDIO
TITLE “A Little Each Day”
PERFORMER “Suicidal Tendencies”
INDEX 01 29:01:45
TRACK 14 AUDIO
TITLE “I Want More”
PERFORMER “Suicidal Tendencies”
INDEX 01 32:53:57
TRACK 15 AUDIO
TITLE “Suicidal Failure”
PERFORMER “Suicidal Tendencies”
INDEX 01 35:03:05


Leave a Reply

Your email address will not be published. Required fields are marked *

This site uses Akismet to reduce spam. Learn how your comment data is processed.