Suicidal Tendencies – Original Album Classics




Artist: Suicidal Tendencies
Year: 2011
Genre: Hardcore
Notes: Discogs
Add. Notes:
Cover incl.: Yes
Encoder: FLAC
Bitrate: ~1000 kBit/s (44.1 kHz/16 Bit/s)
Log & Cue incl.: Yes
Size: 1664,56 MB
Password: “slam” (without ” “)


All Downloads/Hosters are compatible

Download 1
Turbobit.net
Rapidgator.net
UploadEver.com
KatFile.com
UsersDrive.com
Download 2
Turbobit.net
Rapidgator.net
UploadEver.com
KatFile.com
UsersDrive.com
Download 3
Turbobit.net
Rapidgator.net
UploadEver.com
KatFile.com
UsersDrive.com

Tracklist:

How Will I Laugh Tomorrow
1-01 Trip At The Brain 
1-02 Hearing Voices 
1-03 Pledge Your Allegiance 
1-04 How Will I Laugh Tomorrow 
1-05 The Miracle 
1-06 Suicyco Mania 
1-07 Surf And Slam 
1-08 If I Don't Wake Up 
1-09 Sorry?! 
1-10 One Too Many Times 
1-11 The Feeling's Back 
Controlled By Hatred
2-01 Master Of No Mercy 
2-02 How Will I Laugh Tomorrow (Video Edit) 
2-03 Just Another Love Song 
2-04 Walking The Dead 
2-05 Controlled By Hatred 
2-06 Choosing My Own Way Of Life 
2-07 Feel Like Shit... Deja-Vu 
2-08 It's Not Easy 
2-09 How Will I Laugh Tomorrow (Heavy Emotion Version) 
Lights... Camera... Revolution...
3-01 You Can't Bring Me Down 
3-02 Lost Again 
3-03 Alone 
3-04 Lovely 
3-05 Give It Revolution 
3-06 Get Whacked 
3-07 Send Me Your Money 
3-08 Emotion No. 13 
3-09 Disco's Out, Murder's In 
3-10 Go'n Breakdown 
The Art Of Rebellion
4-01 Can't Stop 
4-02 Accept My Sacrifice 
4-03 Nobody Hears 
4-04 Tap Into The Power 
4-05 Monopoly On Sorrow 
4-06 We Call This Mutha Revenge 
4-07 I Wasn't Meant To Feel This / Asleep At The Wheel 
4-08 Gotta Kill Captain Stupid 
4-09 I'll Hate You Better 
4-10 Which Way To Free? 
4-11 It's Going Down 
4-12 Where's The Truth 
Still Cyco After All These Years
5-01 Suicide's An Alternative / You'll Be Sorry 
5-02 Two-Sided Politics 
5-03 Subliminal 
5-04 I Shot The Devil 
5-05 Won't Fall In Love Today 
5-06 Institutionalized 
5-07 War Inside My Head 
5-08 Don't Give Me Your Nothin' 
5-09 Memories Of Tomorrow 
5-10 Go Skate! (Possessed To Skate '97) 
5-11 I Saw Your Mommy 
5-12 Fascist Pig 
5-13 A Little Each Day 
5-14 I Want More 
5-15 Suicidal Failure

EAC-Log, CUE-Sheed & NFO:

Click to open spoiler
Exact Audio Copy V1.0 beta 3 from 29. August 2011

EAC extraction logfile from 21. August 2013, 19:36

Suicidal Tendencies / Controlled By Hatred [Sony, 88697935812CD2, EU]

Used drive : PIONEER DVD-RW DVR-112D Adapter: 0 ID: 0

Read mode : Secure
Utilize accurate stream : Yes
Defeat audio cache : Yes
Make use of C2 pointers : No

Read offset correction : 48
Overread into Lead-In and Lead-Out : No
Fill up missing offset samples with silence : Yes
Delete leading and trailing silent blocks : No
Null samples used in CRC calculations : Yes
Used interface : Installed external ASPI interface

Used output format : User Defined Encoder
Selected bitrate : 1024 kBit/s
Quality : High
Add ID3 tag : No
Command line compressor : C:\Program Files\Exact Audio Copy\FLAC\FLAC.EXE
Additional command line options : -V -8 -T “Date=%year%” -T “Genre=%genre%” %source%

TOC of the extracted CD

Track | Start | Length | Start sector | End sector
———————————————————
1 | 0:00.00 | 2:37.50 | 0 | 11824
2 | 2:37.50 | 4:41.43 | 11825 | 32942
3 | 7:19.18 | 3:16.22 | 32943 | 47664
4 | 10:35.40 | 6:54.43 | 47665 | 78757
5 | 17:30.08 | 5:38.52 | 78758 | 104159
6 | 23:08.60 | 3:05.45 | 104160 | 118079
7 | 26:14.30 | 2:53.33 | 118080 | 131087
8 | 29:07.63 | 3:59.67 | 131088 | 149079
9 | 33:07.55 | 6:30.70 | 149080 | 178399

Range status and errors

Selected range

Filename C:\CDRip by Deminbek\Suicidal Tendencies – Controlled By Hatred [Sony, 88697935812CD2, EU].wav

Peak level 97.7 %
Extraction speed 6.5 X
Range quality 99.9 %
Test CRC C7BE2687
Copy CRC C7BE2687
Copy OK

No errors occurred

AccurateRip summary

Track 1 accurately ripped (confidence 6) [3D064070] (AR v2)
Track 2 accurately ripped (confidence 6) [6F3221B4] (AR v2)
Track 3 accurately ripped (confidence 6) [EF40E45E] (AR v2)
Track 4 accurately ripped (confidence 6) [A91A02A4] (AR v2)
Track 5 accurately ripped (confidence 6) [6E65F838] (AR v2)
Track 6 accurately ripped (confidence 6) [FA959948] (AR v2)
Track 7 accurately ripped (confidence 6) [F73DBA1E] (AR v2)
Track 8 accurately ripped (confidence 7) [123B5F9E] (AR v2)
Track 9 accurately ripped (confidence 7) [02B431AC] (AR v2)

All tracks accurately ripped

End of status report

—- CUETools DB Plugin V2.1.3

[CTDB TOCID: rPdwDmS6wm52JEyH9tC_TjMSDRQ-] found, Submit result: rPdwDmS6wm52JEyH9tC_TjMSDRQ- has been confirmed
[967d16a7] (7/7) Accurately ripped

==== Log checksum 316CB255267D3EC016BE1853140FDFE471A8E565A4AF294335046ABA8691F1DA ====

Exact Audio Copy V1.0 beta 3 from 29. August 2011

EAC extraction logfile from 21. August 2013, 19:18

Suicidal Tendencies / The Art Of Rebellion [Sony, 88697935812CD4, EU]

Used drive : PIONEER DVD-RW DVR-112D Adapter: 0 ID: 0

Read mode : Secure
Utilize accurate stream : Yes
Defeat audio cache : Yes
Make use of C2 pointers : No

Read offset correction : 48
Overread into Lead-In and Lead-Out : No
Fill up missing offset samples with silence : Yes
Delete leading and trailing silent blocks : No
Null samples used in CRC calculations : Yes
Used interface : Installed external ASPI interface

Used output format : User Defined Encoder
Selected bitrate : 1024 kBit/s
Quality : High
Add ID3 tag : No
Command line compressor : C:\Program Files\Exact Audio Copy\FLAC\FLAC.EXE
Additional command line options : -V -8 -T “Date=%year%” -T “Genre=%genre%” %source%

TOC of the extracted CD

Track | Start | Length | Start sector | End sector
———————————————————
1 | 0:00.00 | 6:38.45 | 0 | 29894
2 | 6:38.45 | 3:29.60 | 29895 | 45629
3 | 10:08.30 | 5:33.65 | 45630 | 70669
4 | 15:42.20 | 3:43.37 | 70670 | 87431
5 | 19:25.57 | 5:13.13 | 87432 | 110919
6 | 24:38.70 | 4:50.42 | 110920 | 132711
7 | 29:29.37 | 7:07.13 | 132712 | 164749
8 | 36:36.50 | 4:01.45 | 164750 | 182869
9 | 40:38.20 | 4:17.45 | 182870 | 202189
10 | 44:55.65 | 4:30.07 | 202190 | 222446
11 | 49:25.72 | 4:26.70 | 222447 | 242466
12 | 53:52.67 | 4:13.60 | 242467 | 261501

Range status and errors

Selected range

Filename C:\CDRip by Deminbek\Suicidal Tendencies – The Art Of Rebellion [Sony, 88697935812CD4, EU].wav

Peak level 97.3 %
Extraction speed 7.0 X
Range quality 99.9 %
Test CRC A3C54E6B
Copy CRC A3C54E6B
Copy OK

No errors occurred

AccurateRip summary

Track 1 accurately ripped (confidence 7) [89F5F1CA] (AR v2)
Track 2 accurately ripped (confidence 7) [B991916D] (AR v2)
Track 3 accurately ripped (confidence 7) [EDD312CC] (AR v2)
Track 4 accurately ripped (confidence 7) [94F7AFF2] (AR v2)
Track 5 accurately ripped (confidence 7) [70576AEB] (AR v2)
Track 6 accurately ripped (confidence 7) [F2641E58] (AR v2)
Track 7 accurately ripped (confidence 7) [48728C83] (AR v2)
Track 8 accurately ripped (confidence 7) [C2FBF30B] (AR v2)
Track 9 accurately ripped (confidence 7) [6EE946EB] (AR v2)
Track 10 accurately ripped (confidence 7) [E2914547] (AR v2)
Track 11 accurately ripped (confidence 7) [8E0FC0F0] (AR v2)
Track 12 accurately ripped (confidence 7) [F4FDDABE] (AR v2)

All tracks accurately ripped

End of status report

—- CUETools DB Plugin V2.1.3

[CTDB TOCID: GzRX8lf1lpGAOL940BnlTusWdBY-] found, Submit result: GzRX8lf1lpGAOL940BnlTusWdBY- has been confirmed
[4186c2e8] (8/8) Accurately ripped

==== Log checksum 3DDE06C4F9223EC18DC3F981D7A933C5FF639FDA374F1F0C0ADD27AA8941A15A ====

Exact Audio Copy V1.0 beta 3 from 29. August 2011

EAC extraction logfile from 21. August 2013, 18:32

Suicidal Tendencies / Still Cyco After All These Years [Sony, 88697935812CD5, EU]

Used drive : PIONEER DVD-RW DVR-112D Adapter: 0 ID: 0

Read mode : Secure
Utilize accurate stream : Yes
Defeat audio cache : Yes
Make use of C2 pointers : No

Read offset correction : 48
Overread into Lead-In and Lead-Out : No
Fill up missing offset samples with silence : Yes
Delete leading and trailing silent blocks : No
Null samples used in CRC calculations : Yes
Used interface : Installed external ASPI interface

Used output format : User Defined Encoder
Selected bitrate : 1024 kBit/s
Quality : High
Add ID3 tag : No
Command line compressor : C:\Program Files\Exact Audio Copy\FLAC\FLAC.EXE
Additional command line options : -V -8 -T “Date=%year%” -T “Genre=%genre%” %source%

TOC of the extracted CD

Track | Start | Length | Start sector | End sector
———————————————————
1 | 0:00.00 | 2:25.40 | 0 | 10914
2 | 2:25.40 | 1:02.65 | 10915 | 15629
3 | 3:28.30 | 2:48.02 | 15630 | 28231
4 | 6:16.32 | 1:50.20 | 28232 | 36501
5 | 8:06.52 | 0:51.00 | 36502 | 40326
6 | 8:57.52 | 3:30.20 | 40327 | 56096
7 | 12:27.72 | 3:28.70 | 56097 | 71766
8 | 15:56.67 | 4:03.43 | 71767 | 90034
9 | 20:00.35 | 0:54.60 | 90035 | 94144
10 | 20:55.20 | 2:01.65 | 94145 | 103284
11 | 22:57.10 | 4:51.35 | 103285 | 125144
12 | 27:48.45 | 1:12.62 | 125145 | 130606
13 | 29:01.32 | 3:52.13 | 130607 | 148019
14 | 32:53.45 | 2:09.15 | 148020 | 157709
15 | 35:02.60 | 2:39.20 | 157710 | 169654

Range status and errors

Selected range

Filename C:\CDRip by Deminbek\Suicidal Tendencies – Still Cyco After All These Years [Sony, 88697935812CD5, EU].wav

Peak level 100.0 %
Extraction speed 6.4 X
Range quality 99.9 %
Test CRC F303EDDF
Copy CRC F303EDDF
Copy OK

No errors occurred

AccurateRip summary

Track 1 accurately ripped (confidence 4) [934B8CDF] (AR v2)
Track 2 accurately ripped (confidence 4) [58C222A5] (AR v2)
Track 3 accurately ripped (confidence 4) [E0B9A5E7] (AR v2)
Track 4 accurately ripped (confidence 4) [15472A22] (AR v2)
Track 5 accurately ripped (confidence 4) [EF3D42FE] (AR v2)
Track 6 accurately ripped (confidence 4) [F5A9AD0A] (AR v2)
Track 7 accurately ripped (confidence 4) [7E4D2C0D] (AR v2)
Track 8 accurately ripped (confidence 4) [ED618E97] (AR v2)
Track 9 accurately ripped (confidence 4) [FB398B60] (AR v2)
Track 10 accurately ripped (confidence 4) [1EB8FA81] (AR v2)
Track 11 accurately ripped (confidence 4) [5345B5EB] (AR v2)
Track 12 accurately ripped (confidence 4) [F186CF66] (AR v2)
Track 13 accurately ripped (confidence 4) [448C6B3F] (AR v2)
Track 14 accurately ripped (confidence 4) [DD6BEF37] (AR v2)
Track 15 accurately ripped (confidence 4) [9C9DC275] (AR v2)

All tracks accurately ripped

End of status report

—- CUETools DB Plugin V2.1.3

[CTDB TOCID: 7z2rT.WFDfUo5u.7FzwLkVXMVAU-] found, Submit result: 7z2rT.WFDfUo5u.7FzwLkVXMVAU- has been confirmed
[62c01f75] (7/7) Accurately ripped

==== Log checksum BF63105B21AA4BCDD85DCC957F9FD3CD5C6ED8FA7F532D4852C0DDD87F3C3160 ====

Exact Audio Copy V1.0 beta 3 from 29. August 2011

EAC extraction logfile from 21. August 2013, 19:55

Suicidal Tendencies / Lights… Camera… Revolution [Sony, 88697935812CD3, EU]

Used drive : PIONEER DVD-RW DVR-112D Adapter: 0 ID: 0

Read mode : Secure
Utilize accurate stream : Yes
Defeat audio cache : Yes
Make use of C2 pointers : No

Read offset correction : 48
Overread into Lead-In and Lead-Out : No
Fill up missing offset samples with silence : Yes
Delete leading and trailing silent blocks : No
Null samples used in CRC calculations : Yes
Used interface : Installed external ASPI interface

Used output format : User Defined Encoder
Selected bitrate : 1024 kBit/s
Quality : High
Add ID3 tag : No
Command line compressor : C:\Program Files\Exact Audio Copy\FLAC\FLAC.EXE
Additional command line options : -V -8 -T “Date=%year%” -T “Genre=%genre%” %source%

TOC of the extracted CD

Track | Start | Length | Start sector | End sector
———————————————————
1 | 0:00.00 | 5:50.02 | 0 | 26251
2 | 5:50.02 | 5:16.55 | 26252 | 50006
3 | 11:06.57 | 4:24.05 | 50007 | 69811
4 | 15:30.62 | 3:45.50 | 69812 | 86736
5 | 19:16.37 | 4:22.10 | 86737 | 106396
6 | 23:38.47 | 4:23.73 | 106397 | 126194
7 | 28:02.45 | 3:24.40 | 126195 | 141534
8 | 31:27.10 | 3:43.27 | 141535 | 158286
9 | 35:10.37 | 3:07.50 | 158287 | 172361
10 | 38:18.12 | 4:38.23 | 172362 | 193234

Range status and errors

Selected range

Filename C:\CDRip by Deminbek\Suicidal Tendencies – Lights… Camera… Revolution [Sony, 88697935812CD3, EU].wav

Peak level 89.7 %
Extraction speed 6.8 X
Range quality 100.0 %
Test CRC DE880FDF
Copy CRC DE880FDF
Copy OK

No errors occurred

AccurateRip summary

Track 1 accurately ripped (confidence 7) [E4E43CDB] (AR v2)
Track 2 accurately ripped (confidence 7) [9ECCA359] (AR v2)
Track 3 accurately ripped (confidence 7) [9DA7965E] (AR v2)
Track 4 accurately ripped (confidence 7) [92053087] (AR v2)
Track 5 accurately ripped (confidence 7) [C9C32285] (AR v2)
Track 6 accurately ripped (confidence 7) [FD4332D5] (AR v2)
Track 7 accurately ripped (confidence 7) [1DCBB948] (AR v2)
Track 8 accurately ripped (confidence 7) [1CBED25D] (AR v2)
Track 9 accurately ripped (confidence 7) [1E0A274D] (AR v2)
Track 10 accurately ripped (confidence 7) [61E56265] (AR v2)

All tracks accurately ripped

End of status report

—- CUETools DB Plugin V2.1.3

[CTDB TOCID: 3HeT.ILmGeZYYUiqyxOLe_TeatY-] found, Submit result: 3HeT.ILmGeZYYUiqyxOLe_TeatY- has been confirmed
[d47e98e9] (7/8) Accurately ripped
[c73fdc0e] (1/8) No match

==== Log checksum 383E80566DFAC6A8E1F6736926128FA28387DBAB24ABCBA75F71FAC1EEC73832 ====

Exact Audio Copy V1.0 beta 3 from 29. August 2011

EAC extraction logfile from 21. August 2013, 18:52

Suicidal Tendencies / How Will I Laugh Tomorrow… [Sony, 88697935812CD1, EU]

Used drive : PIONEER DVD-RW DVR-112D Adapter: 0 ID: 0

Read mode : Secure
Utilize accurate stream : Yes
Defeat audio cache : Yes
Make use of C2 pointers : No

Read offset correction : 48
Overread into Lead-In and Lead-Out : No
Fill up missing offset samples with silence : Yes
Delete leading and trailing silent blocks : No
Null samples used in CRC calculations : Yes
Used interface : Installed external ASPI interface

Used output format : User Defined Encoder
Selected bitrate : 1024 kBit/s
Quality : High
Add ID3 tag : No
Command line compressor : C:\Program Files\Exact Audio Copy\FLAC\FLAC.EXE
Additional command line options : -V -8 -T “Date=%year%” -T “Genre=%genre%” %source%

TOC of the extracted CD

Track | Start | Length | Start sector | End sector
———————————————————
1 | 0:00.00 | 4:31.63 | 0 | 20387
2 | 4:31.63 | 4:13.55 | 20388 | 39417
3 | 8:45.43 | 4:32.27 | 39418 | 59844
4 | 13:17.70 | 6:44.48 | 59845 | 90192
5 | 20:02.43 | 5:28.00 | 90193 | 114792
6 | 25:30.43 | 5:53.45 | 114793 | 141312
7 | 31:24.13 | 2:51.62 | 141313 | 154199
8 | 34:16.00 | 4:53.55 | 154200 | 176229
9 | 39:09.55 | 3:47.30 | 176230 | 193284
10 | 42:57.10 | 3:13.20 | 193285 | 207779
11 | 46:10.30 | 4:04.18 | 207780 | 226097

Range status and errors

Selected range

Filename C:\CDRip by Deminbek\Suicidal Tendencies – How Will I Laugh Tomorrow… [Sony, 88697935812CD1, EU].wav

Peak level 98.4 %
Extraction speed 6.5 X
Range quality 99.9 %
Test CRC 8E853E5D
Copy CRC 8E853E5D
Copy OK

No errors occurred

AccurateRip summary

Track 1 accurately ripped (confidence 7) [2DBD4992] (AR v2)
Track 2 accurately ripped (confidence 7) [0C183125] (AR v2)
Track 3 accurately ripped (confidence 7) [E50497BD] (AR v2)
Track 4 accurately ripped (confidence 7) [93723A87] (AR v2)
Track 5 accurately ripped (confidence 7) [8A9B94B7] (AR v2)
Track 6 accurately ripped (confidence 7) [098B83B8] (AR v2)
Track 7 accurately ripped (confidence 7) [BFE0CAF5] (AR v2)
Track 8 accurately ripped (confidence 7) [A5B6C7FF] (AR v2)
Track 9 accurately ripped (confidence 7) [ADF3E7E3] (AR v2)
Track 10 accurately ripped (confidence 7) [3D6A26BB] (AR v2)
Track 11 accurately ripped (confidence 7) [6A4856CB] (AR v2)

All tracks accurately ripped

End of status report

—- CUETools DB Plugin V2.1.3

[CTDB TOCID: _3E_mRg4pDyquWZd9eIcHxnDn08-] found, Submit result: _3E_mRg4pDyquWZd9eIcHxnDn08- has been confirmed
[223daa89] (8/8) Accurately ripped

==== Log checksum EB435E87C8AD7B82A3C357A01F5EFBD5E7DA8B6C959099775F40A840AFFF860E ====

REM GENRE “Heavy Metal”
REM DATE 2011
REM DISCID 82094A09
REM COMMENT “ExactAudioCopy v1.0b3”
CATALOG 0886979358126
PERFORMER “Suicidal Tendencies”
TITLE “Suicidal Tendencies – Controlled By Hatred [Sony, 88697935812CD2, EU]”
FILE “Suicidal Tendencies – Controlled By Hatred [Sony, 88697935812CD2, EU].flac” WAVE
TRACK 01 AUDIO
TITLE “Master Of No Mercy”
PERFORMER “Suicidal Tendencies”
ISRC USSM10022498
INDEX 01 00:00:00
TRACK 02 AUDIO
TITLE “How Will I Laugh Tomorrow (Video Edit)”
PERFORMER “Suicidal Tendencies”
ISRC USSM10022499
INDEX 00 02:37:05
INDEX 01 02:37:50
TRACK 03 AUDIO
TITLE “Just Another Love Song”
PERFORMER “Suicidal Tendencies”
ISRC USSM10020336
INDEX 00 07:18:43
INDEX 01 07:19:18
TRACK 04 AUDIO
TITLE “Walking The Dead”
PERFORMER “Suicidal Tendencies”
ISRC USSM10025501
INDEX 00 10:34:55
INDEX 01 10:35:40
TRACK 05 AUDIO
TITLE “Controlled By Hatred”
PERFORMER “Suicidal Tendencies”
ISRC USSM10022496
INDEX 00 17:29:23
INDEX 01 17:30:08
TRACK 06 AUDIO
TITLE “Choosing My Own Way Of Life”
PERFORMER “Suicidal Tendencies”
ISRC USSM10022497
INDEX 00 23:07:58
INDEX 01 23:08:60
TRACK 07 AUDIO
TITLE “Feel Like Shit… Deja-Vu”
PERFORMER “Suicidal Tendencies”
ISRC USSM10024977
INDEX 00 26:13:20
INDEX 01 26:14:30
TRACK 08 AUDIO
TITLE “It’s Not Easy”
PERFORMER “Suicidal Tendencies”
ISRC USSM10025288
INDEX 01 29:07:63
TRACK 09 AUDIO
TITLE “How Will I Laugh Tomorrow (Heavy Emotion Version)”
PERFORMER “Suicidal Tendencies”
ISRC USSM19700386
INDEX 00 33:06:03
INDEX 01 33:07:55

REM GENRE “Heavy Metal”
REM DATE 2011
REM DISCID A40D9E0C
REM COMMENT “ExactAudioCopy v1.0b3”
CATALOG 0886979358126
PERFORMER “Suicidal Tendencies”
TITLE “The Art Of Rebellion [Sony, 88697935812CD4, EU]”
FILE “Suicidal Tendencies – The Art Of Rebellion [Sony, 88697935812CD4, EU].flac” WAVE
TRACK 01 AUDIO
TITLE “Can’t Stop”
PERFORMER “Suicidal Tendencies”
ISRC USSM10022332
INDEX 01 00:00:00
TRACK 02 AUDIO
TITLE “Accept My Sacrifice”
PERFORMER “Suicidal Tendencies”
ISRC USSM10022333
INDEX 00 06:38:05
INDEX 01 06:38:45
TRACK 03 AUDIO
TITLE “Nobody Hears”
PERFORMER “Suicidal Tendencies”
ISRC USSM10022334
INDEX 00 10:06:55
INDEX 01 10:08:30
TRACK 04 AUDIO
TITLE “Tap Into the Power”
PERFORMER “Suicidal Tendencies”
ISRC USSM10022335
INDEX 00 15:40:55
INDEX 01 15:42:20
TRACK 05 AUDIO
TITLE “Monopoly on Sorrow”
PERFORMER “Suicidal Tendencies”
ISRC USSM10021020
INDEX 00 19:24:15
INDEX 01 19:25:57
TRACK 06 AUDIO
TITLE “We Call This Mutha Revenge”
PERFORMER “Suicidal Tendencies”
ISRC USSM10024953
INDEX 00 24:36:57
INDEX 01 24:38:70
TRACK 07 AUDIO
TITLE “I Wasn’t Meant to Feel This / Asleep at the Wheel”
PERFORMER “Suicidal Tendencies”
ISRC USSM10022336
INDEX 00 29:27:52
INDEX 01 29:29:37
TRACK 08 AUDIO
TITLE “Gotta Kill Captain Stupid”
PERFORMER “Suicidal Tendencies”
ISRC USSM10025378
INDEX 00 36:35:12
INDEX 01 36:36:50
TRACK 09 AUDIO
TITLE “I’ll Hate You Better”
PERFORMER “Suicidal Tendencies”
ISRC USSM10022337
INDEX 00 40:36:25
INDEX 01 40:38:20
TRACK 10 AUDIO
TITLE “Which Way to Free?”
PERFORMER “Suicidal Tendencies”
ISRC USSM10022338
INDEX 00 44:54:27
INDEX 01 44:55:65
TRACK 11 AUDIO
TITLE “It’s Going Down”
PERFORMER “Suicidal Tendencies”
ISRC USSM10022330
INDEX 00 49:22:50
INDEX 01 49:25:72
TRACK 12 AUDIO
TITLE “Where’s the Truth”
PERFORMER “Suicidal Tendencies”
ISRC USSM10024952
INDEX 00 53:52:37
INDEX 01 53:52:67
Exact Audio Copy V1.0 beta 3 from 29. August 2011

EAC extraction logfile from 21. August 2013, 19:36

Suicidal Tendencies / Controlled By Hatred [Sony, 88697935812CD2, EU]

Used drive : PIONEER DVD-RW DVR-112D Adapter: 0 ID: 0

Read mode : Secure
Utilize accurate stream : Yes
Defeat audio cache : Yes
Make use of C2 pointers : No

Read offset correction : 48
Overread into Lead-In and Lead-Out : No
Fill up missing offset samples with silence : Yes
Delete leading and trailing silent blocks : No
Null samples used in CRC calculations : Yes
Used interface : Installed external ASPI interface

Used output format : User Defined Encoder
Selected bitrate : 1024 kBit/s
Quality : High
Add ID3 tag : No
Command line compressor : C:\Program Files\Exact Audio Copy\FLAC\FLAC.EXE
Additional command line options : -V -8 -T “Date=%year%” -T “Genre=%genre%” %source%

TOC of the extracted CD

Track | Start | Length | Start sector | End sector
———————————————————
1 | 0:00.00 | 2:37.50 | 0 | 11824
2 | 2:37.50 | 4:41.43 | 11825 | 32942
3 | 7:19.18 | 3:16.22 | 32943 | 47664
4 | 10:35.40 | 6:54.43 | 47665 | 78757
5 | 17:30.08 | 5:38.52 | 78758 | 104159
6 | 23:08.60 | 3:05.45 | 104160 | 118079
7 | 26:14.30 | 2:53.33 | 118080 | 131087
8 | 29:07.63 | 3:59.67 | 131088 | 149079
9 | 33:07.55 | 6:30.70 | 149080 | 178399

Range status and errors

Selected range

Filename C:\CDRip by Deminbek\Suicidal Tendencies – Controlled By Hatred [Sony, 88697935812CD2, EU].wav

Peak level 97.7 %
Extraction speed 6.5 X
Range quality 99.9 %
Test CRC C7BE2687
Copy CRC C7BE2687
Copy OK

No errors occurred

AccurateRip summary

Track 1 accurately ripped (confidence 6) [3D064070] (AR v2)
Track 2 accurately ripped (confidence 6) [6F3221B4] (AR v2)
Track 3 accurately ripped (confidence 6) [EF40E45E] (AR v2)
Track 4 accurately ripped (confidence 6) [A91A02A4] (AR v2)
Track 5 accurately ripped (confidence 6) [6E65F838] (AR v2)
Track 6 accurately ripped (confidence 6) [FA959948] (AR v2)
Track 7 accurately ripped (confidence 6) [F73DBA1E] (AR v2)
Track 8 accurately ripped (confidence 7) [123B5F9E] (AR v2)
Track 9 accurately ripped (confidence 7) [02B431AC] (AR v2)

All tracks accurately ripped

End of status report

—- CUETools DB Plugin V2.1.3

[CTDB TOCID: rPdwDmS6wm52JEyH9tC_TjMSDRQ-] found, Submit result: rPdwDmS6wm52JEyH9tC_TjMSDRQ- has been confirmed
[967d16a7] (7/7) Accurately ripped

==== Log checksum 316CB255267D3EC016BE1853140FDFE471A8E565A4AF294335046ABA8691F1DA ====

Exact Audio Copy V1.0 beta 3 from 29. August 2011

EAC extraction logfile from 21. August 2013, 19:18

Suicidal Tendencies / The Art Of Rebellion [Sony, 88697935812CD4, EU]

Used drive : PIONEER DVD-RW DVR-112D Adapter: 0 ID: 0

Read mode : Secure
Utilize accurate stream : Yes
Defeat audio cache : Yes
Make use of C2 pointers : No

Read offset correction : 48
Overread into Lead-In and Lead-Out : No
Fill up missing offset samples with silence : Yes
Delete leading and trailing silent blocks : No
Null samples used in CRC calculations : Yes
Used interface : Installed external ASPI interface

Used output format : User Defined Encoder
Selected bitrate : 1024 kBit/s
Quality : High
Add ID3 tag : No
Command line compressor : C:\Program Files\Exact Audio Copy\FLAC\FLAC.EXE
Additional command line options : -V -8 -T “Date=%year%” -T “Genre=%genre%” %source%

TOC of the extracted CD

Track | Start | Length | Start sector | End sector
———————————————————
1 | 0:00.00 | 6:38.45 | 0 | 29894
2 | 6:38.45 | 3:29.60 | 29895 | 45629
3 | 10:08.30 | 5:33.65 | 45630 | 70669
4 | 15:42.20 | 3:43.37 | 70670 | 87431
5 | 19:25.57 | 5:13.13 | 87432 | 110919
6 | 24:38.70 | 4:50.42 | 110920 | 132711
7 | 29:29.37 | 7:07.13 | 132712 | 164749
8 | 36:36.50 | 4:01.45 | 164750 | 182869
9 | 40:38.20 | 4:17.45 | 182870 | 202189
10 | 44:55.65 | 4:30.07 | 202190 | 222446
11 | 49:25.72 | 4:26.70 | 222447 | 242466
12 | 53:52.67 | 4:13.60 | 242467 | 261501

Range status and errors

Selected range

Filename C:\CDRip by Deminbek\Suicidal Tendencies – The Art Of Rebellion [Sony, 88697935812CD4, EU].wav

Peak level 97.3 %
Extraction speed 7.0 X
Range quality 99.9 %
Test CRC A3C54E6B
Copy CRC A3C54E6B
Copy OK

No errors occurred

AccurateRip summary

Track 1 accurately ripped (confidence 7) [89F5F1CA] (AR v2)
Track 2 accurately ripped (confidence 7) [B991916D] (AR v2)
Track 3 accurately ripped (confidence 7) [EDD312CC] (AR v2)
Track 4 accurately ripped (confidence 7) [94F7AFF2] (AR v2)
Track 5 accurately ripped (confidence 7) [70576AEB] (AR v2)
Track 6 accurately ripped (confidence 7) [F2641E58] (AR v2)
Track 7 accurately ripped (confidence 7) [48728C83] (AR v2)
Track 8 accurately ripped (confidence 7) [C2FBF30B] (AR v2)
Track 9 accurately ripped (confidence 7) [6EE946EB] (AR v2)
Track 10 accurately ripped (confidence 7) [E2914547] (AR v2)
Track 11 accurately ripped (confidence 7) [8E0FC0F0] (AR v2)
Track 12 accurately ripped (confidence 7) [F4FDDABE] (AR v2)

All tracks accurately ripped

End of status report

—- CUETools DB Plugin V2.1.3

[CTDB TOCID: GzRX8lf1lpGAOL940BnlTusWdBY-] found, Submit result: GzRX8lf1lpGAOL940BnlTusWdBY- has been confirmed
[4186c2e8] (8/8) Accurately ripped

==== Log checksum 3DDE06C4F9223EC18DC3F981D7A933C5FF639FDA374F1F0C0ADD27AA8941A15A ====

Exact Audio Copy V1.0 beta 3 from 29. August 2011

EAC extraction logfile from 21. August 2013, 18:32

Suicidal Tendencies / Still Cyco After All These Years [Sony, 88697935812CD5, EU]

Used drive : PIONEER DVD-RW DVR-112D Adapter: 0 ID: 0

Read mode : Secure
Utilize accurate stream : Yes
Defeat audio cache : Yes
Make use of C2 pointers : No

Read offset correction : 48
Overread into Lead-In and Lead-Out : No
Fill up missing offset samples with silence : Yes
Delete leading and trailing silent blocks : No
Null samples used in CRC calculations : Yes
Used interface : Installed external ASPI interface

Used output format : User Defined Encoder
Selected bitrate : 1024 kBit/s
Quality : High
Add ID3 tag : No
Command line compressor : C:\Program Files\Exact Audio Copy\FLAC\FLAC.EXE
Additional command line options : -V -8 -T “Date=%year%” -T “Genre=%genre%” %source%

TOC of the extracted CD

Track | Start | Length | Start sector | End sector
———————————————————
1 | 0:00.00 | 2:25.40 | 0 | 10914
2 | 2:25.40 | 1:02.65 | 10915 | 15629
3 | 3:28.30 | 2:48.02 | 15630 | 28231
4 | 6:16.32 | 1:50.20 | 28232 | 36501
5 | 8:06.52 | 0:51.00 | 36502 | 40326
6 | 8:57.52 | 3:30.20 | 40327 | 56096
7 | 12:27.72 | 3:28.70 | 56097 | 71766
8 | 15:56.67 | 4:03.43 | 71767 | 90034
9 | 20:00.35 | 0:54.60 | 90035 | 94144
10 | 20:55.20 | 2:01.65 | 94145 | 103284
11 | 22:57.10 | 4:51.35 | 103285 | 125144
12 | 27:48.45 | 1:12.62 | 125145 | 130606
13 | 29:01.32 | 3:52.13 | 130607 | 148019
14 | 32:53.45 | 2:09.15 | 148020 | 157709
15 | 35:02.60 | 2:39.20 | 157710 | 169654

Range status and errors

Selected range

Filename C:\CDRip by Deminbek\Suicidal Tendencies – Still Cyco After All These Years [Sony, 88697935812CD5, EU].wav

Peak level 100.0 %
Extraction speed 6.4 X
Range quality 99.9 %
Test CRC F303EDDF
Copy CRC F303EDDF
Copy OK

No errors occurred

AccurateRip summary

Track 1 accurately ripped (confidence 4) [934B8CDF] (AR v2)
Track 2 accurately ripped (confidence 4) [58C222A5] (AR v2)
Track 3 accurately ripped (confidence 4) [E0B9A5E7] (AR v2)
Track 4 accurately ripped (confidence 4) [15472A22] (AR v2)
Track 5 accurately ripped (confidence 4) [EF3D42FE] (AR v2)
Track 6 accurately ripped (confidence 4) [F5A9AD0A] (AR v2)
Track 7 accurately ripped (confidence 4) [7E4D2C0D] (AR v2)
Track 8 accurately ripped (confidence 4) [ED618E97] (AR v2)
Track 9 accurately ripped (confidence 4) [FB398B60] (AR v2)
Track 10 accurately ripped (confidence 4) [1EB8FA81] (AR v2)
Track 11 accurately ripped (confidence 4) [5345B5EB] (AR v2)
Track 12 accurately ripped (confidence 4) [F186CF66] (AR v2)
Track 13 accurately ripped (confidence 4) [448C6B3F] (AR v2)
Track 14 accurately ripped (confidence 4) [DD6BEF37] (AR v2)
Track 15 accurately ripped (confidence 4) [9C9DC275] (AR v2)

All tracks accurately ripped

End of status report

—- CUETools DB Plugin V2.1.3

[CTDB TOCID: 7z2rT.WFDfUo5u.7FzwLkVXMVAU-] found, Submit result: 7z2rT.WFDfUo5u.7FzwLkVXMVAU- has been confirmed
[62c01f75] (7/7) Accurately ripped

==== Log checksum BF63105B21AA4BCDD85DCC957F9FD3CD5C6ED8FA7F532D4852C0DDD87F3C3160 ====

Exact Audio Copy V1.0 beta 3 from 29. August 2011

EAC extraction logfile from 21. August 2013, 19:55

Suicidal Tendencies / Lights… Camera… Revolution [Sony, 88697935812CD3, EU]

Used drive : PIONEER DVD-RW DVR-112D Adapter: 0 ID: 0

Read mode : Secure
Utilize accurate stream : Yes
Defeat audio cache : Yes
Make use of C2 pointers : No

Read offset correction : 48
Overread into Lead-In and Lead-Out : No
Fill up missing offset samples with silence : Yes
Delete leading and trailing silent blocks : No
Null samples used in CRC calculations : Yes
Used interface : Installed external ASPI interface

Used output format : User Defined Encoder
Selected bitrate : 1024 kBit/s
Quality : High
Add ID3 tag : No
Command line compressor : C:\Program Files\Exact Audio Copy\FLAC\FLAC.EXE
Additional command line options : -V -8 -T “Date=%year%” -T “Genre=%genre%” %source%

TOC of the extracted CD

Track | Start | Length | Start sector | End sector
———————————————————
1 | 0:00.00 | 5:50.02 | 0 | 26251
2 | 5:50.02 | 5:16.55 | 26252 | 50006
3 | 11:06.57 | 4:24.05 | 50007 | 69811
4 | 15:30.62 | 3:45.50 | 69812 | 86736
5 | 19:16.37 | 4:22.10 | 86737 | 106396
6 | 23:38.47 | 4:23.73 | 106397 | 126194
7 | 28:02.45 | 3:24.40 | 126195 | 141534
8 | 31:27.10 | 3:43.27 | 141535 | 158286
9 | 35:10.37 | 3:07.50 | 158287 | 172361
10 | 38:18.12 | 4:38.23 | 172362 | 193234

Range status and errors

Selected range

Filename C:\CDRip by Deminbek\Suicidal Tendencies – Lights… Camera… Revolution [Sony, 88697935812CD3, EU].wav

Peak level 89.7 %
Extraction speed 6.8 X
Range quality 100.0 %
Test CRC DE880FDF
Copy CRC DE880FDF
Copy OK

No errors occurred

AccurateRip summary

Track 1 accurately ripped (confidence 7) [E4E43CDB] (AR v2)
Track 2 accurately ripped (confidence 7) [9ECCA359] (AR v2)
Track 3 accurately ripped (confidence 7) [9DA7965E] (AR v2)
Track 4 accurately ripped (confidence 7) [92053087] (AR v2)
Track 5 accurately ripped (confidence 7) [C9C32285] (AR v2)
Track 6 accurately ripped (confidence 7) [FD4332D5] (AR v2)
Track 7 accurately ripped (confidence 7) [1DCBB948] (AR v2)
Track 8 accurately ripped (confidence 7) [1CBED25D] (AR v2)
Track 9 accurately ripped (confidence 7) [1E0A274D] (AR v2)
Track 10 accurately ripped (confidence 7) [61E56265] (AR v2)

All tracks accurately ripped

End of status report

—- CUETools DB Plugin V2.1.3

[CTDB TOCID: 3HeT.ILmGeZYYUiqyxOLe_TeatY-] found, Submit result: 3HeT.ILmGeZYYUiqyxOLe_TeatY- has been confirmed
[d47e98e9] (7/8) Accurately ripped
[c73fdc0e] (1/8) No match

==== Log checksum 383E80566DFAC6A8E1F6736926128FA28387DBAB24ABCBA75F71FAC1EEC73832 ====

Exact Audio Copy V1.0 beta 3 from 29. August 2011

EAC extraction logfile from 21. August 2013, 18:52

Suicidal Tendencies / How Will I Laugh Tomorrow… [Sony, 88697935812CD1, EU]

Used drive : PIONEER DVD-RW DVR-112D Adapter: 0 ID: 0

Read mode : Secure
Utilize accurate stream : Yes
Defeat audio cache : Yes
Make use of C2 pointers : No

Read offset correction : 48
Overread into Lead-In and Lead-Out : No
Fill up missing offset samples with silence : Yes
Delete leading and trailing silent blocks : No
Null samples used in CRC calculations : Yes
Used interface : Installed external ASPI interface

Used output format : User Defined Encoder
Selected bitrate : 1024 kBit/s
Quality : High
Add ID3 tag : No
Command line compressor : C:\Program Files\Exact Audio Copy\FLAC\FLAC.EXE
Additional command line options : -V -8 -T “Date=%year%” -T “Genre=%genre%” %source%

TOC of the extracted CD

Track | Start | Length | Start sector | End sector
———————————————————
1 | 0:00.00 | 4:31.63 | 0 | 20387
2 | 4:31.63 | 4:13.55 | 20388 | 39417
3 | 8:45.43 | 4:32.27 | 39418 | 59844
4 | 13:17.70 | 6:44.48 | 59845 | 90192
5 | 20:02.43 | 5:28.00 | 90193 | 114792
6 | 25:30.43 | 5:53.45 | 114793 | 141312
7 | 31:24.13 | 2:51.62 | 141313 | 154199
8 | 34:16.00 | 4:53.55 | 154200 | 176229
9 | 39:09.55 | 3:47.30 | 176230 | 193284
10 | 42:57.10 | 3:13.20 | 193285 | 207779
11 | 46:10.30 | 4:04.18 | 207780 | 226097

Range status and errors

Selected range

Filename C:\CDRip by Deminbek\Suicidal Tendencies – How Will I Laugh Tomorrow… [Sony, 88697935812CD1, EU].wav

Peak level 98.4 %
Extraction speed 6.5 X
Range quality 99.9 %
Test CRC 8E853E5D
Copy CRC 8E853E5D
Copy OK

No errors occurred

AccurateRip summary

Track 1 accurately ripped (confidence 7) [2DBD4992] (AR v2)
Track 2 accurately ripped (confidence 7) [0C183125] (AR v2)
Track 3 accurately ripped (confidence 7) [E50497BD] (AR v2)
Track 4 accurately ripped (confidence 7) [93723A87] (AR v2)
Track 5 accurately ripped (confidence 7) [8A9B94B7] (AR v2)
Track 6 accurately ripped (confidence 7) [098B83B8] (AR v2)
Track 7 accurately ripped (confidence 7) [BFE0CAF5] (AR v2)
Track 8 accurately ripped (confidence 7) [A5B6C7FF] (AR v2)
Track 9 accurately ripped (confidence 7) [ADF3E7E3] (AR v2)
Track 10 accurately ripped (confidence 7) [3D6A26BB] (AR v2)
Track 11 accurately ripped (confidence 7) [6A4856CB] (AR v2)

All tracks accurately ripped

End of status report

—- CUETools DB Plugin V2.1.3

[CTDB TOCID: _3E_mRg4pDyquWZd9eIcHxnDn08-] found, Submit result: _3E_mRg4pDyquWZd9eIcHxnDn08- has been confirmed
[223daa89] (8/8) Accurately ripped

==== Log checksum EB435E87C8AD7B82A3C357A01F5EFBD5E7DA8B6C959099775F40A840AFFF860E ====

REM GENRE “Heavy Metal”
REM DATE 2011
REM DISCID 82094A09
REM COMMENT “ExactAudioCopy v1.0b3”
CATALOG 0886979358126
PERFORMER “Suicidal Tendencies”
TITLE “Suicidal Tendencies – Controlled By Hatred [Sony, 88697935812CD2, EU]”
FILE “Suicidal Tendencies – Controlled By Hatred [Sony, 88697935812CD2, EU].flac” WAVE
TRACK 01 AUDIO
TITLE “Master Of No Mercy”
PERFORMER “Suicidal Tendencies”
ISRC USSM10022498
INDEX 01 00:00:00
TRACK 02 AUDIO
TITLE “How Will I Laugh Tomorrow (Video Edit)”
PERFORMER “Suicidal Tendencies”
ISRC USSM10022499
INDEX 00 02:37:05
INDEX 01 02:37:50
TRACK 03 AUDIO
TITLE “Just Another Love Song”
PERFORMER “Suicidal Tendencies”
ISRC USSM10020336
INDEX 00 07:18:43
INDEX 01 07:19:18
TRACK 04 AUDIO
TITLE “Walking The Dead”
PERFORMER “Suicidal Tendencies”
ISRC USSM10025501
INDEX 00 10:34:55
INDEX 01 10:35:40
TRACK 05 AUDIO
TITLE “Controlled By Hatred”
PERFORMER “Suicidal Tendencies”
ISRC USSM10022496
INDEX 00 17:29:23
INDEX 01 17:30:08
TRACK 06 AUDIO
TITLE “Choosing My Own Way Of Life”
PERFORMER “Suicidal Tendencies”
ISRC USSM10022497
INDEX 00 23:07:58
INDEX 01 23:08:60
TRACK 07 AUDIO
TITLE “Feel Like Shit… Deja-Vu”
PERFORMER “Suicidal Tendencies”
ISRC USSM10024977
INDEX 00 26:13:20
INDEX 01 26:14:30
TRACK 08 AUDIO
TITLE “It’s Not Easy”
PERFORMER “Suicidal Tendencies”
ISRC USSM10025288
INDEX 01 29:07:63
TRACK 09 AUDIO
TITLE “How Will I Laugh Tomorrow (Heavy Emotion Version)”
PERFORMER “Suicidal Tendencies”
ISRC USSM19700386
INDEX 00 33:06:03
INDEX 01 33:07:55

REM GENRE “Heavy Metal”
REM DATE 2011
REM DISCID A40D9E0C
REM COMMENT “ExactAudioCopy v1.0b3”
CATALOG 0886979358126
PERFORMER “Suicidal Tendencies”
TITLE “The Art Of Rebellion [Sony, 88697935812CD4, EU]”
FILE “Suicidal Tendencies – The Art Of Rebellion [Sony, 88697935812CD4, EU].flac” WAVE
TRACK 01 AUDIO
TITLE “Can’t Stop”
PERFORMER “Suicidal Tendencies”
ISRC USSM10022332
INDEX 01 00:00:00
TRACK 02 AUDIO
TITLE “Accept My Sacrifice”
PERFORMER “Suicidal Tendencies”
ISRC USSM10022333
INDEX 00 06:38:05
INDEX 01 06:38:45
TRACK 03 AUDIO
TITLE “Nobody Hears”
PERFORMER “Suicidal Tendencies”
ISRC USSM10022334
INDEX 00 10:06:55
INDEX 01 10:08:30
TRACK 04 AUDIO
TITLE “Tap Into the Power”
PERFORMER “Suicidal Tendencies”
ISRC USSM10022335
INDEX 00 15:40:55
INDEX 01 15:42:20
TRACK 05 AUDIO
TITLE “Monopoly on Sorrow”
PERFORMER “Suicidal Tendencies”
ISRC USSM10021020
INDEX 00 19:24:15
INDEX 01 19:25:57
TRACK 06 AUDIO
TITLE “We Call This Mutha Revenge”
PERFORMER “Suicidal Tendencies”
ISRC USSM10024953
INDEX 00 24:36:57
INDEX 01 24:38:70
TRACK 07 AUDIO
TITLE “I Wasn’t Meant to Feel This / Asleep at the Wheel”
PERFORMER “Suicidal Tendencies”
ISRC USSM10022336
INDEX 00 29:27:52
INDEX 01 29:29:37
TRACK 08 AUDIO
TITLE “Gotta Kill Captain Stupid”
PERFORMER “Suicidal Tendencies”
ISRC USSM10025378
INDEX 00 36:35:12
INDEX 01 36:36:50
TRACK 09 AUDIO
TITLE “I’ll Hate You Better”
PERFORMER “Suicidal Tendencies”
ISRC USSM10022337
INDEX 00 40:36:25
INDEX 01 40:38:20
TRACK 10 AUDIO
TITLE “Which Way to Free?”
PERFORMER “Suicidal Tendencies”
ISRC USSM10022338
INDEX 00 44:54:27
INDEX 01 44:55:65
TRACK 11 AUDIO
TITLE “It’s Going Down”
PERFORMER “Suicidal Tendencies”
ISRC USSM10022330
INDEX 00 49:22:50
INDEX 01 49:25:72
TRACK 12 AUDIO
TITLE “Where’s the Truth”
PERFORMER “Suicidal Tendencies”
ISRC USSM10024952
INDEX 00 53:52:37
INDEX 01 53:52:67

REM GENRE “Heavy Metal”
REM DATE 2011
REM DISCID D408D60F
REM COMMENT “ExactAudioCopy v1.0b3”
CATALOG 0886979358126
PERFORMER “Suicidal Tendencies”
TITLE “Still Cyco After All These Years [Sony, 88697935812CD5, EU]”
FILE “Suicidal Tendencies – Still Cyco After All These Years [Sony, 88697935812CD5, EU].flac” WAVE
TRACK 01 AUDIO
TITLE “Suicide’s An Alternative / You’ll Be Sorry”
PERFORMER “Suicidal Tendencies”
ISRC USSM18900380
INDEX 01 00:00:00
TRACK 02 AUDIO
TITLE “Two-Sided Politics”
PERFORMER “Suicidal Tendencies”
ISRC USSM18903196
INDEX 00 02:24:32
INDEX 01 02:25:40
TRACK 03 AUDIO
TITLE “Subliminal”
PERFORMER “Suicidal Tendencies”
ISRC USSM18903197
INDEX 00 03:27:27
INDEX 01 03:28:30
TRACK 04 AUDIO
TITLE “I Shot The Devil”
PERFORMER “Suicidal Tendencies”
ISRC USSM18903198
INDEX 00 06:14:00
INDEX 01 06:16:32
TRACK 05 AUDIO
TITLE “Won’t Fall In Love Today”
PERFORMER “Suicidal Tendencies”
ISRC USSM18903199
INDEX 01 08:06:52
TRACK 06 AUDIO
TITLE “Institutionalized”
PERFORMER “Suicidal Tendencies”
ISRC USSM18900151
INDEX 00 08:56:22
INDEX 01 08:57:52
TRACK 07 AUDIO
TITLE “War Inside My Head”
PERFORMER “Suicidal Tendencies”
ISRC USSM19303200
INDEX 00 12:26:00
INDEX 01 12:27:72
TRACK 08 AUDIO
TITLE “Don’t Give Me Your Nothin'”
PERFORMER “Suicidal Tendencies”
ISRC USSM18900369
INDEX 00 15:56:00
INDEX 01 15:56:67
TRACK 09 AUDIO
TITLE “Memories Of Tomorrow”
PERFORMER “Suicidal Tendencies”
ISRC USSM18900370
INDEX 00 19:59:25
INDEX 01 20:00:35
TRACK 10 AUDIO
TITLE “Go Skate! (Possessed To Skate ’97)”
PERFORMER “Suicidal Tendencies”
ISRC USSM18900371
INDEX 00 20:54:12
INDEX 01 20:55:20
TRACK 11 AUDIO
TITLE “I Saw Your Mommy”
PERFORMER “Suicidal Tendencies”
ISRC USSM18900372
INDEX 00 22:54:65
INDEX 01 22:57:10
TRACK 12 AUDIO
TITLE “Fascist Pig”
PERFORMER “Suicidal Tendencies”
ISRC USSM18900373
INDEX 00 27:46:10
INDEX 01 27:48:45
TRACK 13 AUDIO
TITLE “A Little Each Day”
PERFORMER “Suicidal Tendencies”
ISRC USSM18900374
INDEX 00 28:59:60
INDEX 01 29:01:32
TRACK 14 AUDIO
TITLE “I Want More”
PERFORMER “Suicidal Tendencies”
ISRC USSM18900375
INDEX 00 32:52:12
INDEX 01 32:53:45
TRACK 15 AUDIO
TITLE “Suicidal Failure”
PERFORMER “Suicidal Tendencies”
ISRC USSM18900376
INDEX 00 35:01:00
INDEX 01 35:02:60

REM GENRE “Heavy Metal”
REM DATE 2011
REM DISCID 7C0A100A
REM COMMENT “ExactAudioCopy v1.0b3”
CATALOG 0886979358126
PERFORMER “Suicidal Tendencies”
TITLE “Lights… Camera… Revolution [Sony, 88697935812CD3, EU]”
FILE “Suicidal Tendencies – Lights… Camera… Revolution [Sony, 88697935812CD3, EU].flac” WAVE
TRACK 01 AUDIO
TITLE “You Can’t Bring Me Down”
PERFORMER “Suicidal Tendencies”
ISRC USSM19000164
INDEX 01 00:00:00
TRACK 02 AUDIO
TITLE “Lost Again”
PERFORMER “Suicidal Tendencies”
ISRC USSM10022488
INDEX 00 05:48:07
INDEX 01 05:50:02
TRACK 03 AUDIO
TITLE “Alone”
PERFORMER “Suicidal Tendencies”
ISRC USSM10022486
INDEX 00 11:05:42
INDEX 01 11:06:57
TRACK 04 AUDIO
TITLE “Lovely”
PERFORMER “Suicidal Tendencies”
ISRC USSM10024460
INDEX 00 15:30:40
INDEX 01 15:30:62
TRACK 05 AUDIO
TITLE “Give It Revolution”
PERFORMER “Suicidal Tendencies”
ISRC USSM10022487
INDEX 00 19:15:42
INDEX 01 19:16:37
TRACK 06 AUDIO
TITLE “Get Whacked”
PERFORMER “Suicidal Tendencies”
ISRC USSM10022483
INDEX 00 23:37:35
INDEX 01 23:38:47
TRACK 07 AUDIO
TITLE “Send Me Your Money”
PERFORMER “Suicidal Tendencies”
ISRC USSM19000159
INDEX 00 28:01:10
INDEX 01 28:02:45
TRACK 08 AUDIO
TITLE “Emotion No. 13”
PERFORMER “Suicidal Tendencies”
ISRC USSM10025597
INDEX 00 31:24:57
INDEX 01 31:27:10
TRACK 09 AUDIO
TITLE “Disco’s Out, Murder’s In”
PERFORMER “Suicidal Tendencies”
ISRC USSM10022484
INDEX 00 35:09:12
INDEX 01 35:10:37
TRACK 10 AUDIO
TITLE “Go’n Breakdown”
PERFORMER “Suicidal Tendencies”
ISRC USSM10022485
INDEX 00 38:16:27
INDEX 01 38:18:12

REM GENRE “Heavy Metal”
REM DATE 2011
REM DISCID A10BC60B
REM COMMENT “ExactAudioCopy v1.0b3”
CATALOG 0886979358126
PERFORMER “Suicidal Tendencies”
TITLE “How Will I Laugh Tomorrow… [Sony, 88697935812CD1, EU]”
FILE “Suicidal Tendencies – How Will I Laugh Tomorrow… [Sony, 88697935812CD1, EU].flac” WAVE
TRACK 01 AUDIO
TITLE “Trip At The Brain”
PERFORMER “Suicidal Tendencies”
ISRC USSM10020148
INDEX 01 00:00:00
TRACK 02 AUDIO
TITLE “Hearing Voices”
PERFORMER “Suicidal Tendencies”
ISRC USSM10026905
INDEX 00 04:31:28
INDEX 01 04:31:63
TRACK 03 AUDIO
TITLE “Pledge Your Allegiance”
PERFORMER “Suicidal Tendencies”
ISRC USSM18800102
INDEX 00 08:45:03
INDEX 01 08:45:43
TRACK 04 AUDIO
TITLE “How Will I Laugh Tomorrow”
PERFORMER “Suicidal Tendencies”
ISRC USSM10027595
INDEX 00 13:16:20
INDEX 01 13:17:70
TRACK 05 AUDIO
TITLE “The Miracle”
PERFORMER “Suicidal Tendencies”
ISRC USSM10026904
INDEX 00 20:01:25
INDEX 01 20:02:43
TRACK 06 AUDIO
TITLE “Suicyco Mania”
PERFORMER “Suicidal Tendencies”
ISRC USSM10025409
INDEX 00 25:28:73
INDEX 01 25:30:43
TRACK 07 AUDIO
TITLE “Surf And Slam”
PERFORMER “Suicidal Tendencies”
ISRC USSM10026903
INDEX 00 31:23:60
INDEX 01 31:24:13
TRACK 08 AUDIO
TITLE “If I Don’t Wake Up”
PERFORMER “Suicidal Tendencies”
ISRC USSM10026902
INDEX 00 34:15:23
INDEX 01 34:16:00
TRACK 09 AUDIO
TITLE “Sorry?!”
PERFORMER “Suicidal Tendencies”
ISRC USSM10026901
INDEX 00 39:09:03
INDEX 01 39:09:55
TRACK 10 AUDIO
TITLE “One Too Many Times”
PERFORMER “Suicidal Tendencies”
ISRC USSM10026900
INDEX 00 42:56:70
INDEX 01 42:57:10
TRACK 11 AUDIO
TITLE “The Feeling’s Back”
PERFORMER “Suicidal Tendencies”
ISRC USSM10026899
INDEX 00 46:10:08
INDEX 01 46:10:30

Leave a Reply

Your email address will not be published. Required fields are marked *

Enter the text from the image below
 

This site uses Akismet to reduce spam. Learn how your comment data is processed.