Suicidal Tendencies – No Mercy Fool! / The Suicidal Family




No Cover available

Artist: Suicidal Tendencies
Year: 2010
Genre: Hardcore
Notes: Discogs
Add. Notes:
Watch Songs on: YouTube
Cover incl.: Yes
Encoder: FLAC
Bitrate: ~1100 kBit/s (44.1 kHz/16 Bit/s)
Log & Cue incl.: Yes
Size: 738,8 MB
Password: “slam” (without ” “)


All Downloads/Hosters are compatible

Download 1
KatFile.com
Turbobit.net
FileFactory.com
Rapidgator.net
Download 2
KatFile.com
Turbobit.net
FileFactory.com
Rapidgator.net

Tracklist:

1. Suicidal Maniac. 
2. Possessed To Skate. 
3. The Prisoner. 
4. I Feel Your Pain... And I Survive. 
5. Join The St Army. 
6. No Name, No Words. 
7. Born To Be Cyco. 
8. Come Alive. 
9. Something Inside Me. 
10. No Mercy Fool!. 
11. We're F'n Evil. 
12. Crazy But Proud. 
13. I'm Your Nightmare. 
14. Widespread Bloodshed... Love Runs Red

EAC-Log, CUE-Sheed & NFO:

Click to open spoiler
EAC extraction logfile from 14. October 2010, 23:06 for CD
Suicidal Tendencies / No Mercy Fool!/The Suicidal Family

Used drive : MATSHITADVD-RAM UJ-852S Adapter: 0 ID: 0
Read mode : Secure with NO C2, accurate stream, disable cache
Read offset correction : 102
Overread into Lead-In and Lead-Out : No

Used output format : C:\Program Files\Exact Audio Copy\MAC.exe (Monkey’s Audio Lossless Encoder)
Normal Lossless Compression

Other options :
Fill up missing offset samples with silence : Yes
Delete leading and trailing silent blocks : No
Installed external ASPI interface

Range status and errors
Selected range
Filename G:\EACrip\Suicidal Tendencies – No Mercy Fool! The Suicidal Family.wav

Peak level 98.8 %
Range quality 100.0 %
CRC 14CC0A4E
Copy OK

No errors occured

End of status report

REM GENRE “Thrash metal”
REM DATE 2010
REM DISCID D60B380E
REM COMMENT “ExactAudioCopy v0.95b4”
PERFORMER “Suicidal Tendencies”
TITLE “No Mercy Fool!/The Suicidal Family”
FILE “Suicidal Tendencies – No Mercy Fool! The Suicidal Family.flac” WAVE
TRACK 01 AUDIO
TITLE “Suicidal Maniac”
PERFORMER “Suicidal Tendencies”
INDEX 01 00:00:00
TRACK 02 AUDIO
TITLE “Possessed to Skate”
PERFORMER “Suicidal Tendencies”
INDEX 01 03:10:58
TRACK 03 AUDIO
TITLE “The Prisoner”
PERFORMER “Suicidal Tendencies”
INDEX 01 06:39:24
TRACK 04 AUDIO
TITLE “I Feel Your Pain… And I Survive”
PERFORMER “Suicidal Tendencies”
INDEX 01 09:49:74
TRACK 05 AUDIO
TITLE “Join the ST Army”
PERFORMER “Suicidal Tendencies”
INDEX 01 13:32:35
TRACK 06 AUDIO
TITLE “No Name, No Words”
PERFORMER “Suicidal Tendencies”
INDEX 01 17:55:33
TRACK 07 AUDIO
TITLE “Born to Be Cyco”
PERFORMER “Suicidal Tendencies”
INDEX 01 20:30:08
TRACK 08 AUDIO
TITLE “Come Alive”
PERFORMER “Suicidal Tendencies”
INDEX 01 22:54:09
TRACK 09 AUDIO
TITLE “Something Inside Me”
PERFORMER “Suicidal Tendencies”
INDEX 01 26:37:44
TRACK 10 AUDIO
TITLE “No Mercy Fool!”
PERFORMER “Suicidal Tendencies”
INDEX 01 29:36:58
TRACK 11 AUDIO
TITLE “We’re F’n Evil”
PERFORMER “Suicidal Tendencies”
INDEX 01 33:05:36
TRACK 12 AUDIO
TITLE “Crazy But Proud”
PERFORMER “Suicidal Tendencies”
INDEX 01 36:42:44
TRACK 13 AUDIO
TITLE “I’m Your Nightmare”
PERFORMER “Suicidal Tendencies”
INDEX 01 39:56:74
TRACK 14 AUDIO
TITLE “Widespread Bloodshed… Love Runs Red”
PERFORMER “Suicidal Tendencies”
INDEX 01 43:17:51


Leave a Reply

Your email address will not be published. Required fields are marked *

This site uses Akismet to reduce spam. Learn how your comment data is processed.