Suicidal Tendencies – Lights… Camera… Revolution




Artist: Suicidal Tendencies
Year: 1990
Genre: Metal
Notes: Discogs
Add. Notes:
Cover incl.: Yes
Encoder: FLAC
Bitrate: ~1000 kBit/s (44.1 kHz/16 Bit/s)
Log & Cue incl.: Yes
Size: 333,35 MB
Password: “slam” (without ” “)


All Downloads/Hosters are compatible

Download 1
Turbobit.net
Rapidgator.net
UploadEver.com
KatFile.com
UsersDrive.com
Download 2
Turbobit.net
Rapidgator.net
UploadEver.com
KatFile.com
UsersDrive.com
Download 3
Turbobit.net
Rapidgator.net
UploadEver.com
KatFile.com
UsersDrive.com

Tracklist:

1 - You Can't Bring Me Down - 5:50
2 - Lost Again - 5:17
3 - Alone - 4:24
4 - Lovely - 3:46
5 - Give It Revolution - 4:22
6 - Get Whacked - 4:25
7 - Send Me Your Money - 3:25
8 - Emotion No. 13 - 3:43
9 - Disco's Out, Murder's In - 3:08
10 - Go'n Breakdown - 4:38

EAC-Log, CUE-Sheed & NFO:

Click to open spoiler
Exact Audio Copy V1.0 beta 3 from 29. August 2011

EAC extraction logfile from 16. February 2012, 19:39

Suicidal Tendencies / Lights Camera Revolution [Sony,Epic, 466569 2, UK]

Used drive : PIONEER DVD-RW DVR-112D Adapter: 1 ID: 0

Read mode : Secure
Utilize accurate stream : Yes
Defeat audio cache : Yes
Make use of C2 pointers : No

Read offset correction : 48
Overread into Lead-In and Lead-Out : No
Fill up missing offset samples with silence : Yes
Delete leading and trailing silent blocks : No
Null samples used in CRC calculations : Yes
Used interface : Installed external ASPI interface

Used output format : User Defined Encoder
Selected bitrate : 1024 kBit/s
Quality : High
Add ID3 tag : No
Command line compressor : C:\Program Files\Exact Audio Copy\FLAC\FLAC.EXE
Additional command line options : -V -8 -T “Date=%year%” -T “Genre=%genre%” %source%

TOC of the extracted CD

Track | Start | Length | Start sector | End sector
———————————————————
1 | 0:00.00 | 5:50.15 | 0 | 26264
2 | 5:50.15 | 5:16.55 | 26265 | 50019
3 | 11:06.70 | 4:24.12 | 50020 | 69831
4 | 15:31.07 | 3:45.43 | 69832 | 86749
5 | 19:16.50 | 4:22.10 | 86750 | 106409
6 | 23:38.60 | 4:23.72 | 106410 | 126206
7 | 28:02.57 | 3:24.40 | 126207 | 141546
8 | 31:27.22 | 3:43.28 | 141547 | 158299
9 | 35:10.50 | 3:07.50 | 158300 | 172374
10 | 38:18.25 | 4:38.72 | 172375 | 193296

Range status and errors

Selected range

Filename C:\CDRip by Deminbek\Suicidal Tendencies – Lights Camera Revolution [Sony,Epic, 466569 2, UK].wav

Peak level 89.7 %
Extraction speed 6.8 X
Range quality 99.9 %
Test CRC A5323AE1
Copy CRC A5323AE1
Copy OK

No errors occurred

AccurateRip summary

Track 1 accurately ripped (confidence 7) [5A8764CC] (AR v1)
Track 2 accurately ripped (confidence 7) [09AB9491] (AR v1)
Track 3 accurately ripped (confidence 7) [834AC250] (AR v1)
Track 4 accurately ripped (confidence 7) [7E65A066] (AR v1)
Track 5 accurately ripped (confidence 7) [BC48C4E0] (AR v1)
Track 6 accurately ripped (confidence 7) [24C79251] (AR v1)
Track 7 accurately ripped (confidence 7) [1055F247] (AR v1)
Track 8 accurately ripped (confidence 7) [36E7DDEF] (AR v1)
Track 9 accurately ripped (confidence 7) [5EAC9E08] (AR v1)
Track 10 accurately ripped (confidence 7) [3526EDD2] (AR v1)

All tracks accurately ripped

End of status report

==== Log checksum 321AFE4DB81A106BD78842B0E36E154EE1EA7B8CBA02FAB2DE348AED0C0B17CF ====

REM GENRE “Heavy Metal”
REM DATE 1990
REM DISCID 7D0A110A
REM COMMENT “ExactAudioCopy v1.0b3”
PERFORMER “Suicidal Tendencies”
TITLE “Lights Camera Revolution [Sony,Epic, 466569 2, EU]”
FILE “Suicidal Tendencies – Lights Camera Revolution [Sony,Epic, 466569 2, UK].flac” WAVE
TRACK 01 AUDIO
TITLE “You Can’t Bring Me Down”
PERFORMER “Suicidal Tendencies”
INDEX 01 00:00:00
TRACK 02 AUDIO
TITLE “Lost Again”
PERFORMER “Suicidal Tendencies”
INDEX 00 05:48:45
INDEX 01 05:50:15
TRACK 03 AUDIO
TITLE “Alone”
PERFORMER “Suicidal Tendencies”
INDEX 00 11:06:05
INDEX 01 11:06:70
TRACK 04 AUDIO
TITLE “Lovely”
PERFORMER “Suicidal Tendencies”
INDEX 00 15:31:02
INDEX 01 15:31:07
TRACK 05 AUDIO
TITLE “Give It Revolution”
PERFORMER “Suicidal Tendencies”
INDEX 00 19:16:05
INDEX 01 19:16:50
TRACK 06 AUDIO
TITLE “Get Whacked”
PERFORMER “Suicidal Tendencies”
INDEX 00 23:37:72
INDEX 01 23:38:60
TRACK 07 AUDIO
TITLE “Send Me Your Money”
PERFORMER “Suicidal Tendencies”
INDEX 00 28:01:47
INDEX 01 28:02:57
TRACK 08 AUDIO
TITLE “Emotion No. 13”
PERFORMER “Suicidal Tendencies”
INDEX 00 31:25:20
INDEX 01 31:27:22
TRACK 09 AUDIO
TITLE “Disco’s Out, Murder’s In”
PERFORMER “Suicidal Tendencies”
INDEX 00 35:09:50
INDEX 01 35:10:50
TRACK 10 AUDIO
TITLE “Go’n Breakdown”
PERFORMER “Suicidal Tendencies”
INDEX 00 38:16:65
INDEX 01 38:18:25
a

Leave a Reply

Your email address will not be published. Required fields are marked *

This site uses Akismet to reduce spam. Learn how your comment data is processed.