Suicidal Tendencies – Lights Camera Revolution / The Art Of Rebellion – The Back To Black Collection (Remastered)




Artist: Suicidal Tendencies
Year: 2001
Genre: Metal
Notes: Discogs
Add. Notes: Remastered
Cover incl.: Yes
Encoder: FLAC
Bitrate: ~900 kBit/s (44.1 kHz/16 Bit/s)
Log & Cue incl.: Yes
Size: 931,21 MB
Password: “slam” (without ” “)


All Downloads/Hosters are compatible

Download 1
Turbobit.net
Rapidgator.net
UploadEver.com
KatFile.com
UsersDrive.com
Download 2
Turbobit.net
Rapidgator.net
UploadEver.com
KatFile.com
UsersDrive.com
Download 3
Turbobit.net
Rapidgator.net
UploadEver.com
KatFile.com
UsersDrive.com

Tracklist:

Lights Camera Revolution
1-1 - You Can't Bring Me Down - 5:48
1-2 - Lost Again - 5:15
1-3 - Alone - 4:24
1-4 - Lovely - 3:45
1-5 - Give It Revolution - 4:21
1-6 - Get Whacked - 4:22
1-7 - Send Me Your Money - 3:22
1-8 - Emotion No. 13 - 3:42
1-9 - Disco's Out, Murder's In - 3:06
1-10 - Go'n Breakdown - 4:38
Bonus
1-11 - Waking The Dead - 6:51
1-12 - How Will I Laugh Tomorrow - 6:42
The Art Of Rebellion
2-1 - Can't Stop - 6:36
2-2 - Accept My Sacrifice - 3:27
2-3 - Nobody Hears - 5:30
2-4 - Tap Into The Power - 3:36
2-5 - Monopoly On Sorrow - 5:10
2-6 - We Call This Mutha Revenge - 4:46
2-7 - I Wasn't Mean To Feel This (Asleep At The Wheel - 
7:04
2-8 - Gotta Kill Captain Stupid - 3:58
2-9 - I'll Hate You Better - 4:15
2-10 - Which Way To Free? - 4:24
2-11 - It's Going Down - 4:24
2-12 - Where's The Truth - 4:11
Bonus
2-13 - Don't Give Me Your Nothing - 4:01
2-14 - War Inside My Head - 3:28

EAC-Log, CUE-Sheed & NFO:

Click to open spoiler
Exact Audio Copy V1.0 beta 3 from 29. August 2011

EAC extraction logfile from 16. February 2012, 21:52

Suicidal Tendencies / Lights… Camera… Revolution [2001, Axe Killer 010581, France]

Used drive : PIONEER DVD-RW DVR-112D Adapter: 1 ID: 0

Read mode : Secure
Utilize accurate stream : Yes
Defeat audio cache : Yes
Make use of C2 pointers : No

Read offset correction : 48
Overread into Lead-In and Lead-Out : No
Fill up missing offset samples with silence : Yes
Delete leading and trailing silent blocks : No
Null samples used in CRC calculations : Yes
Used interface : Installed external ASPI interface

Used output format : User Defined Encoder
Selected bitrate : 1024 kBit/s
Quality : High
Add ID3 tag : No
Command line compressor : C:\Program Files\Exact Audio Copy\FLAC\FLAC.EXE
Additional command line options : -V -8 -T “Date=%year%” -T “Genre=%genre%” %source%

TOC of the extracted CD

Track | Start | Length | Start sector | End sector
———————————————————
1 | 0:01.00 | 5:49.65 | 75 | 26314
2 | 5:50.65 | 5:15.56 | 26315 | 49995
3 | 11:06.46 | 4:25.13 | 49996 | 69883
4 | 15:31.59 | 3:44.65 | 69884 | 86748
5 | 19:16.49 | 4:21.64 | 86749 | 106387
6 | 23:38.38 | 4:23.44 | 106388 | 126156
7 | 28:02.07 | 3:23.57 | 126157 | 141438
8 | 31:25.64 | 3:42.23 | 141439 | 158111
9 | 35:08.12 | 3:06.11 | 158112 | 172072
10 | 38:14.23 | 4:39.11 | 172073 | 193008
11 | 42:53.34 | 6:53.34 | 193009 | 224017
12 | 49:46.68 | 6:42.44 | 224018 | 254211

Range status and errors

Selected range

Filename C:\CDRip by Deminbek\Suicidal Tendencies – Lights… Camera… Revolution [2001, Axe Killer 010581, France].wav

Peak level 99.8 %
Extraction speed 1.7 X
Range quality 100.0 %
Test CRC 2659735A
Copy CRC 2659735A
Copy OK

No errors occurred

AccurateRip summary

Track 1 accurately ripped (confidence 1) [274395D2] (AR v1)
Track 2 accurately ripped (confidence 1) [97B52AE5] (AR v1)
Track 3 accurately ripped (confidence 1) [2D2E9961] (AR v1)
Track 4 accurately ripped (confidence 1) [7C96C159] (AR v1)
Track 5 accurately ripped (confidence 1) [55703E4C] (AR v1)
Track 6 accurately ripped (confidence 1) [B0F95539] (AR v1)
Track 7 accurately ripped (confidence 1) [397847A9] (AR v1)
Track 8 accurately ripped (confidence 1) [2B10D8DB] (AR v1)
Track 9 accurately ripped (confidence 1) [67425FC3] (AR v1)
Track 10 accurately ripped (confidence 1) [B40D0202] (AR v1)
Track 11 accurately ripped (confidence 1) [E702BF55] (AR v1)
Track 12 accurately ripped (confidence 1) [8677901E] (AR v1)

All tracks accurately ripped

End of status report

==== Log checksum 9014471A347C06D63EAEF223712A6BDD8DEA81F5A94D07C5B8571B0C9E11C574 ====

Exact Audio Copy V1.0 beta 3 from 29. August 2011

EAC extraction logfile from 16. February 2012, 22:48

Suicidal Tendencies / The Art Of Rebellion [2001, Axe Killer 010581, France]

Used drive : PIONEER DVD-RW DVR-112D Adapter: 1 ID: 0

Read mode : Secure
Utilize accurate stream : Yes
Defeat audio cache : Yes
Make use of C2 pointers : No

Read offset correction : 48
Overread into Lead-In and Lead-Out : No
Fill up missing offset samples with silence : Yes
Delete leading and trailing silent blocks : No
Null samples used in CRC calculations : Yes
Used interface : Installed external ASPI interface

Used output format : User Defined Encoder
Selected bitrate : 1024 kBit/s
Quality : High
Add ID3 tag : No
Command line compressor : C:\Program Files\Exact Audio Copy\FLAC\FLAC.EXE
Additional command line options : -V -8 -T “Date=%year%” -T “Genre=%genre%” %source%

TOC of the extracted CD

Track | Start | Length | Start sector | End sector
———————————————————
1 | 0:01.00 | 6:37.65 | 75 | 29914
2 | 6:38.65 | 3:29.40 | 29915 | 45629
3 | 10:08.30 | 5:32.28 | 45630 | 70557
4 | 15:40.58 | 3:38.08 | 70558 | 86915
5 | 19:18.66 | 5:12.10 | 86916 | 110325
6 | 24:31.01 | 4:48.24 | 110326 | 131949
7 | 29:19.25 | 7:06.38 | 131950 | 163937
8 | 36:25.63 | 4:00.31 | 163938 | 181968
9 | 40:26.19 | 4:16.70 | 181969 | 201238
10 | 44:43.14 | 4:25.58 | 201239 | 221171
11 | 49:08.72 | 4:25.64 | 221172 | 241110
12 | 53:34.61 | 4:12.60 | 241111 | 260070
13 | 57:47.46 | 4:03.50 | 260071 | 278345
14 | 61:51.21 | 3:28.31 | 278346 | 293976

Range status and errors

Selected range

Filename C:\CDRip by Deminbek\Suicidal Tendencies – The Art Of Rebellion [2001, Axe Killer 010581, France].wav

Peak level 99.8 %
Extraction speed 3.7 X
Range quality 99.9 %
Test CRC E40B1D2F
Copy CRC E40B1D2F
Copy OK

No errors occurred

AccurateRip summary

Track 1 accurately ripped (confidence 1) [B2F16FFD] (AR v1)
Track 2 accurately ripped (confidence 1) [F650DCFA] (AR v1)
Track 3 accurately ripped (confidence 1) [1CC244BA] (AR v1)
Track 4 accurately ripped (confidence 1) [F9A51A83] (AR v1)
Track 5 accurately ripped (confidence 1) [C6F710CD] (AR v1)
Track 6 accurately ripped (confidence 1) [2B7237F7] (AR v1)
Track 7 accurately ripped (confidence 1) [F3211A97] (AR v1)
Track 8 accurately ripped (confidence 1) [25E22FD0] (AR v1)
Track 9 accurately ripped (confidence 1) [0E885FB3] (AR v1)
Track 10 accurately ripped (confidence 1) [2386CD60] (AR v1)
Track 11 accurately ripped (confidence 1) [68F3728F] (AR v1)
Track 12 accurately ripped (confidence 1) [101360BF] (AR v1)
Track 13 accurately ripped (confidence 1) [90A6BBDD] (AR v1)
Track 14 accurately ripped (confidence 1) [CADB3DD4] (AR v1)

All tracks accurately ripped

End of status report

==== Log checksum 97702D6E6CA2D58EEAEA3AD99B57BF252890EE0700F54E63029628E2532A7ABF ====

REM GENRE Heavy Metal
REM DATE 1992
REM DISCID BA0F4E0E
REM COMMENT ExactAudioCopy v1.0b3
PERFORMER “Suicidal Tendencies”
TITLE “The Art Of Rebellion [2001, Axe Killer 010581, France]”
FILE “Suicidal Tendencies – The Art Of Rebellion [2001, Axe Killer 010581, France].flac” WAVE
TRACK 01 AUDIO
TITLE “Can’t Stop”
INDEX 00 00:00:00
INDEX 01 00:01:00
TRACK 02 AUDIO
TITLE “Accept My Sacrifice”
INDEX 00 06:37:08
INDEX 01 06:38:65
TRACK 03 AUDIO
TITLE “Nobody Hears”
INDEX 00 10:06:48
INDEX 01 10:08:30
TRACK 04 AUDIO
TITLE “Tap Into The Power”
INDEX 00 15:39:01
INDEX 01 15:40:58
TRACK 05 AUDIO
TITLE “Monopoly On Sorrow”
INDEX 00 19:17:08
INDEX 01 19:18:66
TRACK 06 AUDIO
TITLE “We Call This Mutha Revenge”
INDEX 00 24:29:19
INDEX 01 24:31:01
TRACK 07 AUDIO
TITLE “I Wasn’t Meant To Feel This, Asleep At The Wheel”
INDEX 00 29:17:43
INDEX 01 29:19:25
TRACK 08 AUDIO
TITLE “Gotta Kill Captain Stupid”
INDEX 00 36:24:06
INDEX 01 36:25:63
TRACK 09 AUDIO
TITLE “I’ll Hate You Better”
INDEX 00 40:24:37
INDEX 01 40:26:19
TRACK 10 AUDIO
TITLE “Which Way To Free?”
INDEX 00 44:41:32
INDEX 01 44:43:14
TRACK 11 AUDIO
TITLE “It’s Going Down”
INDEX 00 49:07:15
INDEX 01 49:08:72
TRACK 12 AUDIO
TITLE “Where’s The Truth”
INDEX 00 53:33:05
INDEX 01 53:34:61
TRACK 13 AUDIO
TITLE “Don’t Give Me Your Nothing”
INDEX 00 57:45:64
INDEX 01 57:47:46
TRACK 14 AUDIO
TITLE “War Inside My Head”
INDEX 00 61:49:39
INDEX 01 61:51:21

REM GENRE “Heavy Metal”
REM DATE 1990
REM DISCID B60D3C0C
REM COMMENT “ExactAudioCopy v1.0b3”
PERFORMER “Suicidal Tendencies”
TITLE “Lights… Camera… Revolution [2001, Axe Killer 010581, France]”
FILE “Suicidal Tendencies – Lights… Camera… Revolution [2001, Axe Killer 010581, France].flac” WAVE
TRACK 01 AUDIO
TITLE “You Can’t Bring Me Down”
PERFORMER “Suicidal Tendencies”
INDEX 00 00:00:00
INDEX 01 00:01:00
TRACK 02 AUDIO
TITLE “Lost Again”
PERFORMER “Suicidal Tendencies”
INDEX 00 05:49:08
INDEX 01 05:50:65
TRACK 03 AUDIO
TITLE “Alone”
PERFORMER “Suicidal Tendencies”
INDEX 00 11:04:64
INDEX 01 11:06:46
TRACK 04 AUDIO
TITLE “Lovely”
PERFORMER “Suicidal Tendencies”
INDEX 00 15:30:02
INDEX 01 15:31:59
TRACK 05 AUDIO
TITLE “Give It Revolution”
PERFORMER “Suicidal Tendencies”
INDEX 00 19:14:67
INDEX 01 19:16:49
TRACK 06 AUDIO
TITLE “Get Whacked”
PERFORMER “Suicidal Tendencies”
INDEX 00 23:36:56
INDEX 01 23:38:38
TRACK 07 AUDIO
TITLE “Send Me Your Money”
PERFORMER “Suicidal Tendencies”
INDEX 00 28:00:25
INDEX 01 28:02:07
TRACK 08 AUDIO
TITLE “Emotion No. 13”
PERFORMER “Suicidal Tendencies”
INDEX 00 31:24:07
INDEX 01 31:25:64
TRACK 09 AUDIO
TITLE “Disco’s Out, Murder’s In”
PERFORMER “Suicidal Tendencies”
INDEX 00 35:06:30
INDEX 01 35:08:12
TRACK 10 AUDIO
TITLE “Go’n Breakdown”
PERFORMER “Suicidal Tendencies”
INDEX 00 38:12:41
INDEX 01 38:14:23
TRACK 11 AUDIO
TITLE “Waking The Dead (Bonus)”
PERFORMER “Suicidal Tendencies”
INDEX 00 42:51:52
INDEX 01 42:53:34
TRACK 12 AUDIO
TITLE “How Will I Laugh Tomorrow (Bonus)”
PERFORMER “Suicidal Tendencies”
INDEX 00 49:45:11
INDEX 01 49:46:68


Leave a Reply

Your email address will not be published. Required fields are marked *

Enter the text from the image below
 

This site uses Akismet to reduce spam. Learn how your comment data is processed.