Suicidal Tendencies – Lights Camera Revolution (Japanese Edition)




Artist: Suicidal Tendencies
Year: 1990
Genre: Metal
Notes: Discogs
Add. Notes: Japanese Edition
Cover incl.: Yes
Encoder: FLAC
Bitrate: ~1000 kBit/s (44.1 kHz/16 Bit/s)
Log & Cue incl.: Yes
Size: 375 MB
Password: “slam” (without ” “)


All Downloads/Hosters are compatible

Download 1
Turbobit.net
Rapidgator.net
UploadEver.com
KatFile.com
UsersDrive.com
Download 2
Turbobit.net
Rapidgator.net
UploadEver.com
KatFile.com
UsersDrive.com
Download 3
Turbobit.net
Rapidgator.net
UploadEver.com
KatFile.com
UsersDrive.com

Tracklist:

1 - You Can't Bring Me Down - 5:50
2 - Lost Again - 5:17
3 - Alone - 4:24
4 - Lovely - 3:46
5 - Give It Revolution - 4:22
6 - Get Whacked - 4:25
7 - Send Me Your Money - 3:25
8 - Emotion No. 13 - 3:43
9 - Disco's Out, Murder's In - 3:08
10 - Go'n Breakdown - 4:38

EAC-Log, CUE-Sheed & NFO:

Click to open spoiler
Exact Audio Copy V0.99 prebeta 5 from 4. May 2009

Archivo Log de extracciones desde 23. Febrero 2015, 17:25

SUICIDAL TENDENCIES / Lights… Camera… Revolution – Japan (ESCA-5132)

Usar unidad : HL-DT-STBD-RE BH10LS30 Adapter: 2 ID: 0

Modo de Lectura : Seguro
Utilizar Corriente Exacta : Sí
Descartar Audio caché : Sí
Utilizar los punteros C2 : No

Corrección de Desplazamiento de Lectura : 667
Sobreleer tanto en Lead-In como en Lead-Out : No
Rellenar las muestras faltantes con silencios : Sí
Eliminar silencios inicial y final : No
Se han usado muestras nulas en los cálculos CRC : Sí
Interfaz usada : Interfaz propio de Win32 para Windowns NT y 2000

Formato de Salida utilizado : Compresor definido por el usuario
Bitrate seleccionado : 32 kBit/s
Calidad : Alta
Añadir Etiqueta ID3 : No
Compresor de linea de comandos : C:\Program Files (x86)\Exact Audio Copy\Flac\flac.exe
Opciones adicionales en línea de comandos : -6 -V %s

TOC del CD extraido

Pista | Inicio | Duración | Sector inicial | Sector final
————————————————————-
1 | 0:00.00 | 5:49.60 | 0 | 26234
2 | 5:49.60 | 5:16.62 | 26235 | 49996
3 | 11:06.47 | 4:24.03 | 49997 | 69799
4 | 15:30.50 | 3:45.52 | 69800 | 86726
5 | 19:16.27 | 4:22.03 | 86727 | 106379
6 | 23:38.30 | 4:24.02 | 106380 | 126181
7 | 28:02.32 | 3:24.43 | 126182 | 141524
8 | 31:27.00 | 3:43.12 | 141525 | 158261
9 | 35:10.12 | 3:07.65 | 158262 | 172351
10 | 38:18.02 | 4:39.30 | 172352 | 193306

Gama de estados y errores

Seleccionar gama

Nombre de Archivo E:\Música\EAC\Suicidal Tendencies\SUICIDAL TENDENCIES – Lights… Camera… Revolution – Japan (ESCA-5132).wav

Nivel Pico 89.7 %
Gama de Calidad 100.0 %
Test CRC 6BC18559
Copiar CRC 6BC18559
Copia OK

Sin Errores

Resumen AccurateRip

Pista 1 no presente en la base de datos
Pista 2 no presente en la base de datos
Pista 3 no presente en la base de datos
Pista 4 no presente en la base de datos
Pista 5 no presente en la base de datos
Pista 6 no presente en la base de datos
Pista 7 no presente en la base de datos
Pista 8 no presente en la base de datos
Pista 9 no presente en la base de datos
Pista 10 no presente en la base de datos

Ninguna de las pistas está presente en la base de datos AccurateRip

Final del Informe

REM GENRE “Thrash Metal”
REM DATE 1990
REM DISCID 7B0A110A
REM COMMENT “ExactAudioCopy v0.99pb5”
PERFORMER “SUICIDAL TENDENCIES”
TITLE “Lights… Camera… Revolution – Japan (ESCA-5132)”
FILE “SUICIDAL TENDENCIES – Lights… Camera… Revolution – Japan (ESCA-5132).flac” WAVE
TRACK 01 AUDIO
TITLE “You Can’t Bring Me Down”
PERFORMER “SUICIDAL TENDENCIES”
INDEX 01 00:00:00
TRACK 02 AUDIO
TITLE “Lost Again”
PERFORMER “SUICIDAL TENDENCIES”
INDEX 01 05:49:60
TRACK 03 AUDIO
TITLE “Alone”
PERFORMER “SUICIDAL TENDENCIES”
INDEX 01 11:06:47
TRACK 04 AUDIO
TITLE “Lovely”
PERFORMER “SUICIDAL TENDENCIES”
INDEX 01 15:30:50
TRACK 05 AUDIO
TITLE “Give it Revolution”
PERFORMER “SUICIDAL TENDENCIES”
INDEX 01 19:16:27
TRACK 06 AUDIO
TITLE “Get Whacked”
PERFORMER “SUICIDAL TENDENCIES”
INDEX 01 23:38:30
TRACK 07 AUDIO
TITLE “Send Me Your Money”
PERFORMER “SUICIDAL TENDENCIES”
INDEX 01 28:02:32
TRACK 08 AUDIO
TITLE “Emotion No. 13”
PERFORMER “SUICIDAL TENDENCIES”
INDEX 00 31:25:30
INDEX 01 31:27:00
TRACK 09 AUDIO
TITLE “Disco’s Out, Murder’s In”
PERFORMER “SUICIDAL TENDENCIES”
INDEX 01 35:10:12
TRACK 10 AUDIO
TITLE “Go’n Breakdown”
PERFORMER “SUICIDAL TENDENCIES”
INDEX 00 38:16:70
INDEX 01 38:18:02

Leave a Reply

Your email address will not be published. Required fields are marked *

Enter the text from the image below
 

This site uses Akismet to reduce spam. Learn how your comment data is processed.