Suicidal Tendencies – Join The Army




Artist: Suicidal Tendencies
Year: 1987
Genre: Punk
Notes: Discogs
Add. Notes:
Cover incl.: Yes
Encoder: FLAC
Bitrate: ~1000 kBit/s (44.1 kHz/16 Bit/s)
Log & Cue incl.: Yes
Size: 288,7 MB
Password: “slam” (without ” “)


All Downloads/Hosters are compatible

Download 1
Turbobit.net
Rapidgator.net
UploadEver.com
KatFile.com
UsersDrive.com
Download 2
Turbobit.net
Rapidgator.net
UploadEver.com
KatFile.com
UsersDrive.com
Download 3
Turbobit.net
Rapidgator.net
UploadEver.com
KatFile.com
UsersDrive.com

Tracklist:

1. Suicidal Maniac 
2. Join The Army 
3. You Got, I Want 
4. A Little Each Day 
5. The Prisoner 
6. War Inside My Head 
7. I Feel Your Pain 
8. Human Guinea Pig 
9. Possessed To Skate 
10. No Name, No Words 
11. Cyco 
12. Two Wrongs Don't Make A Right (But They Make Me 
Feel A Whole Lot Better) 
13. Looking In Your Eyes

EAC-Log, CUE-Sheed & NFO:

Click to open spoiler
Exact Audio Copy V0.99 prebeta 4 from 23. January 2008

EAC extraction logfile from 19. November 2008, 23:39

Suicidal Tendencies / Join The Army

Used drive : PLEXTOR CD-R PREMIUM2 Adapter: 1 ID: 1

Read mode : Secure
Utilize accurate stream : Yes
Defeat audio cache : Yes
Make use of C2 pointers : No

Read offset correction : 30
Overread into Lead-In and Lead-Out : No
Fill up missing offset samples with silence : Yes
Delete leading and trailing silent blocks : No
Null samples used in CRC calculations : Yes
Used interface : Installed external ASPI interface

Used output format : Internal WAV Routines
Sample format : 44.100 Hz; 16 Bit; Stereo

TOC of the extracted CD

Track | Start | Length | Start sector | End sector
———————————————————
1 | 0:00.00 | 2:57.07 | 0 | 13281
2 | 2:57.07 | 3:37.33 | 13282 | 29589
3 | 6:34.40 | 2:55.60 | 29590 | 42774
4 | 9:30.25 | 4:08.47 | 42775 | 61421
5 | 13:38.72 | 2:53.48 | 61422 | 74444
6 | 16:32.45 | 3:51.35 | 74445 | 91804
7 | 20:24.05 | 3:27.50 | 91805 | 107379
8 | 23:51.55 | 2:05.40 | 107380 | 116794
9 | 25:57.20 | 2:34.00 | 116795 | 128344
10 | 28:31.20 | 2:35.10 | 128345 | 139979
11 | 31:06.30 | 2:13.27 | 139980 | 149981
12 | 33:19.57 | 2:49.18 | 149982 | 162674
13 | 36:09.00 | 2:50.00 | 162675 | 175424

Range status and errors

Selected range

Filename C:\_www.AvaxHome.ru\1987- Join The Army\Suicidal Tendencies – Join The Army.wav

Peak level 100.0 %
Range quality 100.0 %
Test CRC 2CCEA276
Copy CRC 2CCEA276
Copy OK

No errors occurred

AccurateRip summary

Track 1 accurately ripped (confidence 5) [98E30351]
Track 2 accurately ripped (confidence 5) [4848E1CF]
Track 3 accurately ripped (confidence 5) [6ACE510E]
Track 4 accurately ripped (confidence 5) [29B546CD]
Track 5 accurately ripped (confidence 5) [6B2B5D19]
Track 6 accurately ripped (confidence 5) [4A0C5024]
Track 7 accurately ripped (confidence 5) [B361D648]
Track 8 accurately ripped (confidence 5) [581E869C]
Track 9 accurately ripped (confidence 5) [8586668F]
Track 10 accurately ripped (confidence 5) [DE9C0FDB]
Track 11 accurately ripped (confidence 5) [420532EB]
Track 12 accurately ripped (confidence 6) [621AC542]
Track 13 accurately ripped (confidence 6) [23CEF97A]

All tracks accurately ripped

End of status report

REM GENRE Hardcore/Punk
REM DATE 1987
REM DISCID AE09230D
REM COMMENT ExactAudioCopy v0.99pb4
PERFORMER “Suicidal Tendencies”
TITLE “Join The Army”
FILE “Suicidal Tendencies – Join The Army.flac” WAVE
TRACK 01 AUDIO
TITLE “Suicidal Maniac”
PERFORMER “Suicidal Tendencies”
INDEX 01 00:00:00
TRACK 02 AUDIO
TITLE “Join The Army”
PERFORMER “Suicidal Tendencies”
INDEX 00 02:56:05
INDEX 01 02:57:07
TRACK 03 AUDIO
TITLE “You Got, I Want”
PERFORMER “Suicidal Tendencies”
INDEX 00 06:32:00
INDEX 01 06:34:40
TRACK 04 AUDIO
TITLE “A Little Each Day”
PERFORMER “Suicidal Tendencies”
INDEX 00 09:26:62
INDEX 01 09:30:25
TRACK 05 AUDIO
TITLE “The Prisoner”
PERFORMER “Suicidal Tendencies”
INDEX 00 13:36:42
INDEX 01 13:38:72
TRACK 06 AUDIO
TITLE “War Inside My Head”
PERFORMER “Suicidal Tendencies”
INDEX 00 16:30:70
INDEX 01 16:32:45
TRACK 07 AUDIO
TITLE “I Feel Your Pain”
PERFORMER “Suicidal Tendencies”
INDEX 00 20:22:70
INDEX 01 20:24:05
TRACK 08 AUDIO
TITLE “Human Guinea Pig”
PERFORMER “Suicidal Tendencies”
INDEX 00 23:50:52
INDEX 01 23:51:55
TRACK 09 AUDIO
TITLE “Possessed To Skate”
PERFORMER “Suicidal Tendencies”
INDEX 00 25:56:17
INDEX 01 25:57:20
TRACK 10 AUDIO
TITLE “No Name, No Words”
PERFORMER “Suicidal Tendencies”
INDEX 00 28:27:40
INDEX 01 28:31:20
TRACK 11 AUDIO
TITLE “Cyco”
PERFORMER “Suicidal Tendencies”
INDEX 00 31:05:12
INDEX 01 31:06:30
TRACK 12 AUDIO
TITLE “Two Wrongs Don’t Make A Right”
PERFORMER “Suicidal Tendencies”
INDEX 00 33:17:52
INDEX 01 33:19:57
TRACK 13 AUDIO
TITLE “Looking In Your Eyes”
PERFORMER “Suicidal Tendencies”
INDEX 00 36:05:62
INDEX 01 36:09:00

Leave a Reply

Your email address will not be published. Required fields are marked *

This site uses Akismet to reduce spam. Learn how your comment data is processed.