Suicidal Tendencies – How Will I Laugh Tomorrow When I Can’t Even Smile Today




Artist: Suicidal Tendencies
Year: 1988
Genre: Metal
Notes: Discogs
Add. Notes:
Cover incl.: Yes
Encoder: FLAC
Bitrate: ~900 kBit/s (44.1 kHz/16 Bit/s)
Log & Cue incl.: Yes
Size: 347,63 MB
Password: “slam” (without ” “)


All Downloads/Hosters are compatible

Download 1
Turbobit.net
Rapidgator.net
UploadEver.com
KatFile.com
UsersDrive.com
Download 2
Turbobit.net
Rapidgator.net
UploadEver.com
KatFile.com
UsersDrive.com
Download 3
Turbobit.net
Rapidgator.net
UploadEver.com
KatFile.com
UsersDrive.com

Tracklist:

1 - Trip At The Brain - 4:30
2 - Hearing Voices - 4:12
3 - Pledge Your Allegiance - 4:30
4 - How Will I Laugh Tomorrow - 6:43
5 - The Miracle - 5:28
6 - Suicyco Mania - 5:52
7 - Surf And Slam - 2:50
8 - If I Don't Wake Up - 4:43
9 - Sorry?! - 3:41
10 - One Too Many Times - 3:14
11 - The Feeling's Back - 4:03

EAC-Log, CUE-Sheed & NFO:

Click to open spoiler
Exact Audio Copy V0.99 prebeta 5 from 4. May 2009

EAC extraction logfile from 27. April 2013, 18:19

Suicidal Tendencies / How Will I Laugh Tomorrow When I Can’t Even Smile Today

Used drive : HL-DT-STDVD-RAM GH22NP20 Adapter: 0 ID: 0

Read mode : Secure
Utilize accurate stream : Yes
Defeat audio cache : Yes
Make use of C2 pointers : No

Read offset correction : 102
Overread into Lead-In and Lead-Out : No
Fill up missing offset samples with silence : Yes
Delete leading and trailing silent blocks : No
Null samples used in CRC calculations : Yes
Used interface : Native Win32 interface for Win NT & 2000

Used output format : User Defined Encoder
Selected bitrate : 32 kBit/s
Quality : High
Add ID3 tag : No
Command line compressor : C:\Programme\Exact Audio Copy\FLAC.EXE
Additional command line options : -6 -V %s

TOC of the extracted CD

Track | Start | Length | Start sector | End sector
———————————————————
1 | 0:00.00 | 4:32.57 | 0 | 20456
2 | 4:32.57 | 4:13.43 | 20457 | 39474
3 | 8:46.25 | 4:32.32 | 39475 | 59906
4 | 13:18.57 | 6:44.60 | 59907 | 90266
5 | 20:03.42 | 5:28.33 | 90267 | 114899
6 | 25:32.00 | 5:52.67 | 114900 | 141366
7 | 31:24.67 | 2:51.58 | 141367 | 154249
8 | 34:16.50 | 4:53.62 | 154250 | 176286
9 | 39:10.37 | 3:47.45 | 176287 | 193356
10 | 42:58.07 | 3:13.15 | 193357 | 207846
11 | 46:11.22 | 4:04.48 | 207847 | 226194

Range status and errors

Selected range

Filename D:\MMT\SUICIDAL TENDENCIES [1988] [CD] How Will I Laugh Tomorrow… When I Can’t Even Smile Today [EAC-FLAC] by Long Metalhead [MeTaLMaDNeSS.TeaM]\How Will I Laugh Tomorrow\Suicidal Tendencies – How Will I Laugh Tomorrow When I Can’t Even Smil

Peak level 98.4 %
Range quality 100.0 %
Test CRC 483C6DA6
Copy CRC 483C6DA6
Copy OK

No errors occurred

AccurateRip summary

Track 1 accurately ripped (confidence 26) [FB65F660]
Track 2 accurately ripped (confidence 26) [F2F18291]
Track 3 accurately ripped (confidence 26) [350B813D]
Track 4 accurately ripped (confidence 26) [DC0856E1]
Track 5 accurately ripped (confidence 26) [13A6013E]
Track 6 accurately ripped (confidence 25) [238C07E5]
Track 7 accurately ripped (confidence 25) [21F60A7C]
Track 8 accurately ripped (confidence 25) [06783C36]
Track 9 accurately ripped (confidence 26) [73DD0D10]
Track 10 accurately ripped (confidence 24) [FBD7D1A4]
Track 11 accurately ripped (confidence 26) [98073B55]

All tracks accurately ripped

End of status report

REM GENRE “Thrash Metal”
REM DATE 1988
REM DISCID 8F0BC70B
REM COMMENT “ExactAudioCopy v0.99pb5”
PERFORMER “Suicidal Tendencies”
TITLE “How Will I Laugh Tomorrow When I Can’t Even Smile Today”
FILE “Suicidal Tendencies – How Will I Laugh Tomorrow When I Can’t Even Smile Today.flac” WAVE
TRACK 01 AUDIO
TITLE “Trip At The Brain”
PERFORMER “Suicidal Tendencies”
INDEX 01 00:00:00
TRACK 02 AUDIO
TITLE “Hearing Voices”
PERFORMER “Suicidal Tendencies”
INDEX 00 04:31:50
INDEX 01 04:32:57
TRACK 03 AUDIO
TITLE “Pledge Your Allegiance”
PERFORMER “Suicidal Tendencies”
INDEX 00 08:45:26
INDEX 01 08:46:25
TRACK 04 AUDIO
TITLE “How Will I Laugh Tomorrow”
PERFORMER “Suicidal Tendencies”
INDEX 00 13:14:37
INDEX 01 13:18:57
TRACK 05 AUDIO
TITLE “The Miracle”
PERFORMER “Suicidal Tendencies”
INDEX 00 20:00:04
INDEX 01 20:03:42
TRACK 06 AUDIO
TITLE “Suicyco Mania”
PERFORMER “Suicidal Tendencies”
INDEX 00 25:29:30
INDEX 01 25:32:00
TRACK 07 AUDIO
TITLE “Surf And Slam”
PERFORMER “Suicidal Tendencies”
INDEX 00 31:24:30
INDEX 01 31:24:67
TRACK 08 AUDIO
TITLE “If I Don’t Wake Up”
PERFORMER “Suicidal Tendencies”
INDEX 00 34:16:05
INDEX 01 34:16:50
TRACK 09 AUDIO
TITLE “Sorry?!”
PERFORMER “Suicidal Tendencies”
INDEX 00 39:09:47
INDEX 01 39:10:37
TRACK 10 AUDIO
TITLE “One Too Many Times”
PERFORMER “Suicidal Tendencies”
INDEX 00 42:57:27
INDEX 01 42:58:07
TRACK 11 AUDIO
TITLE “The Feeling’s Back”
PERFORMER “Suicidal Tendencies”
INDEX 00 46:09:17
INDEX 01 46:11:22

Leave a Reply

Your email address will not be published. Required fields are marked *

This site uses Akismet to reduce spam. Learn how your comment data is processed.