Suicidal Tendencies – How Will I Laugh Tomorrow When I Can’t Even Smile Today (Japanese Edition)




Artist: Suicidal Tendencies
Year: 1988
Genre: Metal
Notes: Discogs
Add. Notes: Japanese Edition
Cover incl.: Yes
Encoder: FLAC
Bitrate: ~900 kBit/s (44.1 kHz/16 Bit/s)
Log & Cue incl.: Yes
Size: 379,38 MB
Password: “slam” (without ” “)


All Downloads/Hosters are compatible

Download 1
Turbobit.net
Rapidgator.net
UploadEver.com
KatFile.com
UsersDrive.com
Download 2
Turbobit.net
Rapidgator.net
UploadEver.com
KatFile.com
UsersDrive.com
Download 3
Turbobit.net
Rapidgator.net
UploadEver.com
KatFile.com
UsersDrive.com

Tracklist:

1. Trip At The Brain 
2. Hearing Voices 
3. Pledge Your Allegiance 
4. How Will I Laugh Tomorrow 
5. The Miracle 
6. Suicyco Mania 
7. Surf And Slam 
8. If I Don't Wake Up 
9. Sorry?! 
10. One Too Many Times 
11. The Feeling's Back

EAC-Log, CUE-Sheed & NFO:

Click to open spoiler
Exact Audio Copy V1.0 beta 3 from 29. August 2011

EAC extraction logfile from 21. August 2013, 9:21

Suicidal Tendencies / How Will I Laugh Tomorrow [Epic-Sony, 25 8P-5151, Japan]

Used drive : PIONEER DVD-RW DVR-112D Adapter: 0 ID: 0

Read mode : Secure
Utilize accurate stream : Yes
Defeat audio cache : Yes
Make use of C2 pointers : No

Read offset correction : 48
Overread into Lead-In and Lead-Out : No
Fill up missing offset samples with silence : Yes
Delete leading and trailing silent blocks : No
Null samples used in CRC calculations : Yes
Used interface : Installed external ASPI interface

Used output format : User Defined Encoder
Selected bitrate : 1024 kBit/s
Quality : High
Add ID3 tag : No
Command line compressor : C:\Program Files\Exact Audio Copy\FLAC\FLAC.EXE
Additional command line options : -V -8 -T “Date=%year%” -T “Genre=%genre%” %source%

TOC of the extracted CD

Track | Start | Length | Start sector | End sector
———————————————————
1 | 0:00.00 | 4:32.17 | 0 | 20416
2 | 4:32.17 | 4:13.40 | 20417 | 39431
3 | 8:45.57 | 4:32.38 | 39432 | 59869
4 | 13:18.20 | 6:44.50 | 59870 | 90219
5 | 20:02.70 | 5:27.42 | 90220 | 114786
6 | 25:30.37 | 5:52.35 | 114787 | 141221
7 | 31:22.72 | 2:51.63 | 141222 | 154109
8 | 34:14.60 | 4:53.45 | 154110 | 176129
9 | 39:08.30 | 3:47.42 | 176130 | 193196
10 | 42:55.72 | 3:13.15 | 193197 | 207686
11 | 46:09.12 | 4:05.28 | 207687 | 226089

Range status and errors

Selected range

Filename C:\CDRip by Deminbek\Suicidal Tendencies – How Will I Laugh Tomorrow [Epic-Sony, 25 8P-5151, Japan].wav

Peak level 99.9 %
Extraction speed 6.9 X
Range quality 99.9 %
Test CRC 2EA741A5
Copy CRC 2EA741A5
Copy OK

No errors occurred

AccurateRip summary

Track 1 accurately ripped (confidence 2) [9014C8B1] (AR v1)
Track 2 accurately ripped (confidence 2) [6B897B1E] (AR v1)
Track 3 accurately ripped (confidence 2) [FEA21E8F] (AR v1)
Track 4 accurately ripped (confidence 2) [591DB9D4] (AR v1)
Track 5 accurately ripped (confidence 2) [855A85AE] (AR v1)
Track 6 accurately ripped (confidence 2) [76DF5E7C] (AR v1)
Track 7 accurately ripped (confidence 2) [01444447] (AR v1)
Track 8 accurately ripped (confidence 2) [882E3644] (AR v1)
Track 9 accurately ripped (confidence 2) [39BD979C] (AR v1)
Track 10 accurately ripped (confidence 2) [8EB7B9AC] (AR v1)
Track 11 accurately ripped (confidence 2) [81DFCE99] (AR v1)

All tracks accurately ripped

End of status report

—- CUETools DB Plugin V2.1.3

[CTDB TOCID: HNe9Yc5DxJYw3dEgDC5DDBWu9hw-] found, Submit result: HNe9Yc5DxJYw3dEgDC5DDBWu9hw- has been confirmed
[b80341f2] (3/3) Accurately ripped

==== Log checksum 70AD4A3F5DA4BE5589BBBFB9D571C9053E9B4385CA880D36D5FEB783253CD4E1 ====

REM GENRE “Heavy Metal”
REM DATE 1988
REM DISCID 890BC60B
REM COMMENT “ExactAudioCopy v1.0b3”
PERFORMER “Suicidal Tendencies”
TITLE “How Will I Laugh Tomorrow [Epic-Sony, 25 8P-5151, Japan]”
FILE “Suicidal Tendencies – How Will I Laugh Tomorrow [Epic-Sony, 25 8P-5151, Japan].flac” WAVE
TRACK 01 AUDIO
TITLE “Trip At The Brain”
PERFORMER “Suicidal Tendencies”
INDEX 01 00:00:00
TRACK 02 AUDIO
TITLE “Hearing Voices”
PERFORMER “Suicidal Tendencies”
INDEX 01 04:32:17
TRACK 03 AUDIO
TITLE “Pledge Your Allegiance”
PERFORMER “Suicidal Tendencies”
INDEX 01 08:45:57
TRACK 04 AUDIO
TITLE “How Will I Laugh Tomorrow”
PERFORMER “Suicidal Tendencies”
INDEX 01 13:18:20
TRACK 05 AUDIO
TITLE “The Miracle”
PERFORMER “Suicidal Tendencies”
INDEX 01 20:02:70
TRACK 06 AUDIO
TITLE “Suicyco Mania”
PERFORMER “Suicidal Tendencies”
INDEX 01 25:30:37
TRACK 07 AUDIO
TITLE “Surf And Slam”
PERFORMER “Suicidal Tendencies”
INDEX 01 31:22:72
TRACK 08 AUDIO
TITLE “If I Don’t Wake Up”
PERFORMER “Suicidal Tendencies”
INDEX 01 34:14:60
TRACK 09 AUDIO
TITLE “Sorry?!”
PERFORMER “Suicidal Tendencies”
INDEX 01 39:08:30
TRACK 10 AUDIO
TITLE “One Too Many Times”
PERFORMER “Suicidal Tendencies”
INDEX 01 42:55:72
TRACK 11 AUDIO
TITLE “The Feeling’s Back”
PERFORMER “Suicidal Tendencies”
INDEX 01 46:09:12

Leave a Reply

Your email address will not be published. Required fields are marked *

This site uses Akismet to reduce spam. Learn how your comment data is processed.