Suicidal Tendencies – Freedumb




Artist: Suicidal Tendencies
Year: 1999
Genre: Hardcore
Notes: Discogs
Add. Notes:
Cover incl.: Yes
Encoder: FLAC
Bitrate: ~1000 kBit/s (44.1 kHz/16 Bit/s)
Log & Cue incl.: Yes
Size: 368,44 MB
Password: “slam” (without ” “)


All Downloads/Hosters are compatible

Download 1
Turbobit.net
Rapidgator.net
KatFile.com
UploadRar.com
Download 2
Turbobit.net
Rapidgator.net
KatFile.com
UploadRar.com

Tracklist:

1 - Freedumb - 2:52
2 - Ain't Gonna Take It - 2:09
3 - Scream Out - 2:28
4 - Half Way Up My Head - 4:01
5 - Cyco Vision - 1:49
6 - I Ain't Like You - 2:35
7 - Naked - 3:56
8 - Hippie Killer - 3:10
9 - Built To Survive - 3:06
10 - Get Sick - 2:58
11 - We Are Family - 2:54
12 - I'll Buy Myself - 1:48
13 - Gaigan Go Home - 1:57
14 - Heaven - 4:17

EAC-Log, CUE-Sheed & NFO:

Click to open spoiler
Exact Audio Copy V1.0 beta 1 from 15. November 2010

EAC extraction logfile from 2. October 2011, 7:54

Suicidal Tendencies / Freedumb

Used drive : PLEXTOR DVDR PX-716A Adapter: 1 ID: 0

Read mode : Secure
Utilize accurate stream : Yes
Defeat audio cache : Yes
Make use of C2 pointers : No

Read offset correction : 30
Overread into Lead-In and Lead-Out : No
Fill up missing offset samples with silence : Yes
Delete leading and trailing silent blocks : No
Null samples used in CRC calculations : Yes
Used interface : Installed external ASPI interface

Used output format : Internal WAV Routines
Sample format : 44.100 Hz; 16 Bit; Stereo

TOC of the extracted CD

Track | Start | Length | Start sector | End sector
———————————————————
1 | 0:00.00 | 2:52.02 | 0 | 12901
2 | 2:52.02 | 2:08.56 | 12902 | 22557
3 | 5:00.58 | 2:29.35 | 22558 | 33767
4 | 7:30.18 | 4:01.36 | 33768 | 51878
5 | 11:31.54 | 1:49.23 | 51879 | 60076
6 | 13:21.02 | 2:35.18 | 60077 | 71719
7 | 15:56.20 | 3:56.18 | 71720 | 89437
8 | 19:52.38 | 3:09.68 | 89438 | 103680
9 | 23:02.31 | 3:06.44 | 103681 | 117674
10 | 26:09.00 | 2:57.60 | 117675 | 131009
11 | 29:06.60 | 2:54.24 | 131010 | 144083
12 | 32:01.09 | 1:48.15 | 144084 | 152198
13 | 33:49.24 | 1:57.51 | 152199 | 161024
14 | 35:47.00 | 4:13.02 | 161025 | 180001

Range status and errors

Selected range

Filename C:\AvaxHome.ru\Suicidal Tendencies – Freedumb (1999)\Suicidal Tendencies – Freedumb.wav

Peak level 100.0 %
Extraction speed 0.7 X
Range quality 100.0 %
Test CRC 978C288E
Copy CRC 978C288E
Copy OK

No errors occurred

AccurateRip summary

Track 1 accurately ripped (confidence 2) [4B0CA8A0]
Track 2 accurately ripped (confidence 2) [E2302000]
Track 3 accurately ripped (confidence 3) [3B0AA6B4]
Track 4 accurately ripped (confidence 3) [7DFE6903]
Track 5 accurately ripped (confidence 2) [01247500]
Track 6 accurately ripped (confidence 2) [035EB3FA]
Track 7 accurately ripped (confidence 2) [A4877091]
Track 8 accurately ripped (confidence 2) [0676ED04]
Track 9 accurately ripped (confidence 2) [D2A91271]
Track 10 accurately ripped (confidence 2) [74DD1149]
Track 11 accurately ripped (confidence 2) [41BFA8B3]
Track 12 accurately ripped (confidence 2) [BD6D2DF5]
Track 13 accurately ripped (confidence 2) [C054D9A7]
Track 14 cannot be verified as accurate (confidence 23) [8C6AC3FA], AccurateRip returned [E404CAE7]

13 track(s) accurately ripped
1 track(s) could not be verified as accurate

Some tracks could not be verified as accurate

End of status report

==== Log checksum 008E445395A188E85F12CC516DF805DE718A33E318E07E93914AA46A693D2CBB ====

REM GENRE Hardcore/Punk
REM DATE 1999
REM DISCID B709600E
REM COMMENT “ExactAudioCopy v1.0b1”
CATALOG 0000000000000
PERFORMER “Suicidal Tendencies”
TITLE “Freedumb”
FILE “Suicidal Tendencies – Freedumb.flac” WAVE
TRACK 01 AUDIO
TITLE “Freedumb”
PERFORMER “Suicidal Tendencies”
INDEX 01 00:00:00
TRACK 02 AUDIO
TITLE “Ain’t Gonna Take It”
PERFORMER “Suicidal Tendencies”
INDEX 01 02:52:02
TRACK 03 AUDIO
TITLE “Scream Out”
PERFORMER “Suicidal Tendencies”
INDEX 00 05:00:31
INDEX 01 05:00:58
TRACK 04 AUDIO
TITLE “Halfway Up My Head”
PERFORMER “Suicidal Tendencies”
INDEX 00 07:30:15
INDEX 01 07:30:18
TRACK 05 AUDIO
TITLE “Cyco Vision”
PERFORMER “Suicidal Tendencies”
INDEX 00 11:31:51
INDEX 01 11:31:54
TRACK 06 AUDIO
TITLE “I Ain’t Like You”
PERFORMER “Suicidal Tendencies”
INDEX 01 13:21:02
TRACK 07 AUDIO
TITLE “Naked”
PERFORMER “Suicidal Tendencies”
INDEX 00 15:56:15
INDEX 01 15:56:20
TRACK 08 AUDIO
TITLE “Hippie Killer”
PERFORMER “Suicidal Tendencies”
INDEX 00 19:52:06
INDEX 01 19:52:38
TRACK 09 AUDIO
TITLE “Built To Survive”
PERFORMER “Suicidal Tendencies”
INDEX 00 23:02:29
INDEX 01 23:02:31
TRACK 10 AUDIO
TITLE “Get Sick”
PERFORMER “Suicidal Tendencies”
INDEX 00 26:08:63
INDEX 01 26:09:00
TRACK 11 AUDIO
TITLE “We Are Family”
PERFORMER “Suicidal Tendencies”
INDEX 00 29:06:58
INDEX 01 29:06:60
TRACK 12 AUDIO
TITLE “I’ll Buy Myself”
PERFORMER “Suicidal Tendencies”
INDEX 00 32:00:51
INDEX 01 32:01:09
TRACK 13 AUDIO
TITLE “Gaigan Go Home”
PERFORMER “Suicidal Tendencies”
INDEX 01 33:49:24
TRACK 14 AUDIO
TITLE “Heaven”
PERFORMER “Suicidal Tendencies”
INDEX 01 35:47:00


Leave a Reply

Your email address will not be published. Required fields are marked *

This site uses Akismet to reduce spam. Learn how your comment data is processed.