Suicidal Tendencies – Freedumb (Japanese Edition)




Artist: Suicidal Tendencies
Year: 1999
Genre: Metal
Notes: Discogs
Add. Notes: Japanese Edition
Cover incl.: Yes
Encoder: FLAC
Bitrate: ~1000 kBit/s (44.1 kHz/16 Bit/s)
Log & Cue incl.: Yes
Size: 359,23 MB
Password: “slam” (without ” “)


All Downloads/Hosters are compatible

Download 1
Turbobit.net
Rapidgator.net
KatFile.com
UploadRar.com
Download 2
Turbobit.net
Rapidgator.net
KatFile.com
UploadRar.com
Download 3
Turbobit.net
Rapidgator.net
KatFile.com
UploadRar.com

Tracklist:

1. Freedumb
2. Ain't Gonna Take It
3. Scream Out
4. Half Way Up My Head
5. Cyco Vision
6. I Ain't Like You
7. Naked
8. Hippie Killer
9. Built To Survive
10. Get Sick
11. We Are Family
12. I'll Buy Myself 
13. Gaijin Go Home
14. Heaven
Bonus Track
15. Don't Take No

EAC-Log, CUE-Sheed & NFO:

Click to open spoiler
Exact Audio Copy V1.0 beta 3 from 29. August 2011

EAC extraction logfile from 9. July 2013, 21:49

Suicidal Tendencies / Freedumb [Toshiba-EMI, TOCP-65177, Japan]

Used drive : PIONEER DVD-RW DVR-112D Adapter: 0 ID: 0

Read mode : Secure
Utilize accurate stream : Yes
Defeat audio cache : Yes
Make use of C2 pointers : No

Read offset correction : 48
Overread into Lead-In and Lead-Out : No
Fill up missing offset samples with silence : Yes
Delete leading and trailing silent blocks : No
Null samples used in CRC calculations : Yes
Used interface : Installed external ASPI interface

Used output format : User Defined Encoder
Selected bitrate : 1024 kBit/s
Quality : High
Add ID3 tag : No
Command line compressor : C:\Program Files\Exact Audio Copy\FLAC\FLAC.EXE
Additional command line options : -V -8 -T “Date=%year%” -T “Genre=%genre%” %source%

TOC of the extracted CD

Track | Start | Length | Start sector | End sector
———————————————————
1 | 0:00.00 | 2:52.15 | 0 | 12914
2 | 2:52.15 | 2:09.40 | 12915 | 22629
3 | 5:01.55 | 2:28.45 | 22630 | 33774
4 | 7:30.25 | 4:01.40 | 33775 | 51889
5 | 11:31.65 | 1:49.05 | 51890 | 60069
6 | 13:20.70 | 2:35.22 | 60070 | 71716
7 | 15:56.17 | 3:56.13 | 71717 | 89429
8 | 19:52.30 | 3:10.02 | 89430 | 103681
9 | 23:02.32 | 3:06.30 | 103682 | 117661
10 | 26:08.62 | 2:58.03 | 117662 | 131014
11 | 29:06.65 | 2:54.12 | 131015 | 144076
12 | 32:01.02 | 1:48.20 | 144077 | 152196
13 | 33:49.22 | 1:57.50 | 152197 | 161021
14 | 35:46.72 | 4:17.10 | 161022 | 180306
15 | 40:04.07 | 3:18.63 | 180307 | 195219

Range status and errors

Selected range

Filename C:\CDRip by Deminbek\Suicidal Tendencies – Freedumb [Toshiba-EMI, TOCP-65177, Japan].wav

Peak level 100.0 %
Extraction speed 6.8 X
Range quality 100.0 %
Test CRC 721037C1
Copy CRC 721037C1
Copy OK

No errors occurred

AccurateRip summary

Track 1 accurately ripped (confidence 1) [D453F577] (AR v1)
Track 2 accurately ripped (confidence 1) [003907C6] (AR v1)
Track 3 accurately ripped (confidence 2) [F30C6B5D] (AR v1)
Track 4 accurately ripped (confidence 1) [84F2CF2B] (AR v1)
Track 5 accurately ripped (confidence 2) [20A3325D] (AR v1)
Track 6 accurately ripped (confidence 1) [FB7F803C] (AR v1)
Track 7 accurately ripped (confidence 1) [B434F3A3] (AR v1)
Track 8 accurately ripped (confidence 1) [3BCC2D29] (AR v1)
Track 9 accurately ripped (confidence 1) [40A229D7] (AR v1)
Track 10 accurately ripped (confidence 1) [EF0C659C] (AR v1)
Track 11 accurately ripped (confidence 1) [D39719D8] (AR v1)
Track 12 accurately ripped (confidence 1) [119B93B0] (AR v1)
Track 13 accurately ripped (confidence 2) [642D62CF] (AR v1)
Track 14 accurately ripped (confidence 1) [9B548A3C] (AR v1)
Track 15 accurately ripped (confidence 2) [A362A5DA] (AR v1)

All tracks accurately ripped

End of status report

—- CUETools DB Plugin V2.1.3

[CTDB TOCID: Vx55Pxukgd3QQdKR.BtmmZjZ35A-] found, Submit result: Vx55Pxukgd3QQdKR.BtmmZjZ35A- has been confirmed
[434558e4] (1/1) Accurately ripped

==== Log checksum 5918F8E012F6C6ABC8B0DC838EFA9618325AF0E6C72747B4CC1A3FD1103459CB ====

REM GENRE “Heavy Metal”
REM DATE 1999
REM DISCID C10A2A0F
REM COMMENT “ExactAudioCopy v1.0b3”
CATALOG 4988006766983
PERFORMER “Suicidal Tendencies”
TITLE “Freedumb [Toshiba-EMI, TOCP-65177, Japan]”
FILE “Suicidal Tendencies – Freedumb [Toshiba-EMI, TOCP-65177, Japan].flac” WAVE
TRACK 01 AUDIO
TITLE “Freedumb”
PERFORMER “Suicidal Tendencies”
INDEX 01 00:00:00
TRACK 02 AUDIO
TITLE “Ain’t Gonna Take It”
PERFORMER “Suicidal Tendencies”
INDEX 00 02:52:05
INDEX 01 02:52:15
TRACK 03 AUDIO
TITLE “Scream Out”
PERFORMER “Suicidal Tendencies”
INDEX 00 05:00:35
INDEX 01 05:01:55
TRACK 04 AUDIO
TITLE “Halfway Up My Head”
PERFORMER “Suicidal Tendencies”
INDEX 01 07:30:25
TRACK 05 AUDIO
TITLE “Cyco Vision”
PERFORMER “Suicidal Tendencies”
INDEX 00 11:31:60
INDEX 01 11:31:65
TRACK 06 AUDIO
TITLE “I Ain’t Like You”
PERFORMER “Suicidal Tendencies”
INDEX 01 13:20:70
TRACK 07 AUDIO
TITLE “Naked”
PERFORMER “Suicidal Tendencies”
INDEX 00 15:56:10
INDEX 01 15:56:17
TRACK 08 AUDIO
TITLE “Hippie Killer”
PERFORMER “Suicidal Tendencies”
INDEX 00 19:51:60
INDEX 01 19:52:30
TRACK 09 AUDIO
TITLE “Built To Survive”
PERFORMER “Suicidal Tendencies”
INDEX 00 23:02:25
INDEX 01 23:02:32
TRACK 10 AUDIO
TITLE “Get Sick”
PERFORMER “Suicidal Tendencies”
INDEX 00 26:08:50
INDEX 01 26:08:62
TRACK 11 AUDIO
TITLE “We Are Family”
PERFORMER “Suicidal Tendencies”
INDEX 00 29:06:60
INDEX 01 29:06:65
TRACK 12 AUDIO
TITLE “I’ll Buy Myself”
PERFORMER “Suicidal Tendencies”
INDEX 00 32:00:52
INDEX 01 32:01:02
TRACK 13 AUDIO
TITLE “Gaijin Go Home”
PERFORMER “Suicidal Tendencies”
INDEX 00 33:48:60
INDEX 01 33:49:22
TRACK 14 AUDIO
TITLE “Heaven”
PERFORMER “Suicidal Tendencies”
INDEX 01 35:46:72
TRACK 15 AUDIO
TITLE “Don’t Take No”
PERFORMER “Suicidal Tendencies”
INDEX 00 40:00:10
INDEX 01 40:04:07


Leave a Reply

Your email address will not be published. Required fields are marked *

This site uses Akismet to reduce spam. Learn how your comment data is processed.