Suicidal Tendencies – Free Your Soul… And Save My Mind (Japanese Edition)




Artist: Suicidal Tendencies
Year: 2000
Genre: Punk
Notes: Discogs
Add. Notes: Japanese Edition
Cover incl.: Yes
Encoder: FLAC
Bitrate: ~1000 kBit/s (44.1 kHz/16 Bit/s)
Log & Cue incl.: Yes
Size: 464,84 MB
Password: “slam” (without ” “)


All Downloads/Hosters are compatible

Download 1
Turbobit.net
Rapidgator.net
UploadEver.com
KatFile.com
UsersDrive.com
Download 2
Turbobit.net
Rapidgator.net
UploadEver.com
KatFile.com
UsersDrive.com
Download 3
Turbobit.net
Rapidgator.net
UploadEver.com
KatFile.com
UsersDrive.com

Tracklist:

1 - Self Destruct - 3:32
2 - Su Casa Es Mi Casa - 4:08
3 - No More No Less - 3:25
4 - Free Your Soul...And Save My Mind - 3:52
5 - Pop Songs - 2:19
6 - Bullenium - 2:50
7 - Animal - 2:11
8 - Straight From The Heart - 4:42
9 - Cyco Speak - 3:04
10 - Start Your Brain - 3:16
11 - Public Dissension - 3:26
12 - Children Of The Bored - 3:42
13 - Got Mutation - 3:03
14 - Charlie Monroe - 5:19
15 - Home - 7:19
16 - Refuse - 3:06

EAC-Log, CUE-Sheed & NFO:

Click to open spoiler
Exact Audio Copy V1.0 beta 3 from 29. August 2011

EAC extraction logfile from 9. July 2013, 21:31

Suicidal Tendencies / Free Your Soul… And Save My Mind [Toshiba-EMI, TOCP-65460, Japan]

Used drive : PIONEER DVD-RW DVR-112D Adapter: 0 ID: 0

Read mode : Secure
Utilize accurate stream : Yes
Defeat audio cache : Yes
Make use of C2 pointers : No

Read offset correction : 48
Overread into Lead-In and Lead-Out : No
Fill up missing offset samples with silence : Yes
Delete leading and trailing silent blocks : No
Null samples used in CRC calculations : Yes
Used interface : Installed external ASPI interface

Used output format : User Defined Encoder
Selected bitrate : 1024 kBit/s
Quality : High
Add ID3 tag : No
Command line compressor : C:\Program Files\Exact Audio Copy\FLAC\FLAC.EXE
Additional command line options : -V -8 -T “Date=%year%” -T “Genre=%genre%” %source%

TOC of the extracted CD

Track | Start | Length | Start sector | End sector
———————————————————
1 | 0:00.00 | 3:32.35 | 0 | 15934
2 | 3:32.35 | 4:09.35 | 15935 | 34644
3 | 7:41.70 | 3:25.47 | 34645 | 50066
4 | 11:07.42 | 3:52.33 | 50067 | 67499
5 | 15:00.00 | 2:21.17 | 67500 | 78091
6 | 17:21.17 | 2:49.70 | 78092 | 90836
7 | 20:11.12 | 2:11.38 | 90837 | 100699
8 | 22:22.50 | 4:43.05 | 100700 | 121929
9 | 27:05.55 | 3:04.47 | 121930 | 135776
10 | 30:10.27 | 3:16.05 | 135777 | 150481
11 | 33:26.32 | 3:26.00 | 150482 | 165931
12 | 36:52.32 | 3:42.33 | 165932 | 182614
13 | 40:34.65 | 3:02.45 | 182615 | 196309
14 | 43:37.35 | 5:18.05 | 196310 | 220164
15 | 48:55.40 | 7:31.65 | 220165 | 254054
16 | 56:27.30 | 3:06.47 | 254055 | 268051

Range status and errors

Selected range

Filename C:\CDRip by Deminbek\Suicidal Tendencies – Free Your Soul… And Save My Mind [Toshiba-EMI, TOCP-65460, Japan].wav

Peak level 98.8 %
Extraction speed 7.1 X
Range quality 99.9 %
Test CRC 129F1372
Copy CRC 129F1372
Copy OK

No errors occurred

AccurateRip summary

Track 1 cannot be verified as accurate (confidence 1) [17F4847B], AccurateRip returned [F291431D] (AR v2)
Track 2 cannot be verified as accurate (confidence 1) [B77C68D2], AccurateRip returned [1CDEA346] (AR v2)
Track 3 cannot be verified as accurate (confidence 1) [085F6D37], AccurateRip returned [DFAFBB39] (AR v2)
Track 4 cannot be verified as accurate (confidence 1) [1D646257], AccurateRip returned [9CD1B42C] (AR v2)
Track 5 cannot be verified as accurate (confidence 1) [FB4B50A3], AccurateRip returned [E9389A97] (AR v2)
Track 6 cannot be verified as accurate (confidence 1) [4BD1135D], AccurateRip returned [53A2C761] (AR v2)
Track 7 cannot be verified as accurate (confidence 1) [ADB2A463], AccurateRip returned [E13057FC] (AR v2)
Track 8 cannot be verified as accurate (confidence 1) [988A0F70], AccurateRip returned [CF99F050] (AR v2)
Track 9 cannot be verified as accurate (confidence 1) [B04C7917], AccurateRip returned [DE7A4636] (AR v2)
Track 10 cannot be verified as accurate (confidence 1) [4FA045C5], AccurateRip returned [6813C33E] (AR v2)
Track 11 cannot be verified as accurate (confidence 1) [CFD77CF5], AccurateRip returned [F0EFB8A4] (AR v2)
Track 12 cannot be verified as accurate (confidence 1) [37B65114], AccurateRip returned [AC2E10BB] (AR v2)
Track 13 cannot be verified as accurate (confidence 1) [1EE19FA8], AccurateRip returned [3959E6EF] (AR v2)
Track 14 cannot be verified as accurate (confidence 1) [19B0CC4C], AccurateRip returned [9AF56090] (AR v2)
Track 15 cannot be verified as accurate (confidence 1) [3E5D3EE9], AccurateRip returned [EA705997] (AR v2)
Track 16 cannot be verified as accurate (confidence 1) [D09F2C12], AccurateRip returned [DA2E4BD2] (AR v2)

No tracks could be verified as accurate
You may have a different pressing from the one(s) in the database

End of status report

—- CUETools DB Plugin V2.1.3

[CTDB TOCID: 9k_Uaf_KZObVtuuDvi4SC4Oz2QI-] disk not present in database, Submit result: 9k_Uaf_KZObVtuuDvi4SC4Oz2QI- has been uploaded

==== Log checksum E231A1DDAFE3DC6923CF8F459F6B08FCAD67D085DFC17B9628AB40FBC29CAD27 ====

REM GENRE Rock
REM DATE 2000
REM DISCID CD0DF610
REM COMMENT “ExactAudioCopy v1.0b3”
CATALOG 4988006782914
PERFORMER “Suicidal Tendencies”
TITLE “Free Your Soul… And Save My Mind [Toshiba-EMI, TOCP-65460, Japan]”
FILE “Suicidal Tendencies – Free Your Soul… And Save My Mind [Toshiba-EMI, TOCP-65460, Japan].flac” WAVE
TRACK 01 AUDIO
TITLE “Self Destruct”
PERFORMER “Suicidal Tendencies”
INDEX 01 00:00:00
TRACK 02 AUDIO
TITLE “Su Casa Es Mi Casa”
PERFORMER “Suicidal Tendencies”
INDEX 01 03:32:35
TRACK 03 AUDIO
TITLE “No More No Less”
PERFORMER “Suicidal Tendencies”
INDEX 00 07:41:62
INDEX 01 07:41:70
TRACK 04 AUDIO
TITLE “Free Your Soul… And Save My Mind”
PERFORMER “Suicidal Tendencies”
INDEX 00 11:06:67
INDEX 01 11:07:42
TRACK 05 AUDIO
TITLE “Pop Songs”
PERFORMER “Suicidal Tendencies”
INDEX 00 14:59:55
INDEX 01 15:00:00
TRACK 06 AUDIO
TITLE “Bullenium”
PERFORMER “Suicidal Tendencies”
INDEX 01 17:21:17
TRACK 07 AUDIO
TITLE “Animal”
PERFORMER “Suicidal Tendencies”
INDEX 01 20:11:12
TRACK 08 AUDIO
TITLE “Straight From The Heart”
PERFORMER “Suicidal Tendencies”
INDEX 00 22:22:30
INDEX 01 22:22:50
TRACK 09 AUDIO
TITLE “Cyco Speak”
PERFORMER “Suicidal Tendencies”
INDEX 00 27:05:05
INDEX 01 27:05:55
TRACK 10 AUDIO
TITLE “Start Your Brain”
PERFORMER “Suicidal Tendencies”
INDEX 01 30:10:27
TRACK 11 AUDIO
TITLE “Public Dissension”
PERFORMER “Suicidal Tendencies”
INDEX 01 33:26:32
TRACK 12 AUDIO
TITLE “Children Of The Bored”
PERFORMER “Suicidal Tendencies”
INDEX 00 36:52:15
INDEX 01 36:52:32
TRACK 13 AUDIO
TITLE “Got Mutatioin”
PERFORMER “Suicidal Tendencies”
INDEX 00 40:34:45
INDEX 01 40:34:65
TRACK 14 AUDIO
TITLE “Charlie Monroe”
PERFORMER “Suicidal Tendencies”
INDEX 01 43:37:35
TRACK 15 AUDIO
TITLE “Home”
PERFORMER “Suicidal Tendencies”
INDEX 01 48:55:40
TRACK 16 AUDIO
TITLE “Refuse”
PERFORMER “Suicidal Tendencies”
INDEX 00 56:26:32
INDEX 01 56:27:30

Leave a Reply

Your email address will not be published. Required fields are marked *

Enter the text from the image below
 

This site uses Akismet to reduce spam. Learn how your comment data is processed.