Suicidal Tendencies – Cyco Miko ‎– Lost My Brain! (Once Again)




Artist: Suicidal Tendencies
Year: 1995
Genre: Hardcore
Notes: Discogs
Add. Notes:
Cover incl.: Yes
Encoder: FLAC
Bitrate: ~1000 kBit/s (44.1 kHz/16 Bit/s)
Log & Cue incl.: Yes
Size: 422,96 MB
Password: “slam” (without ” “)


All Downloads/Hosters are compatible

Download 1
NitroFlare.com
KatFile.com
Turbobit.net
Rapidgator.net
UploadRar.com
Download 2
NitroFlare.com
KatFile.com
Turbobit.net
Rapidgator.net
UploadRar.com

Tracklist:

1 - I Love Destruction - 2:55
2 - All I Ever Get - 4:15
3 - F.U.B.A.R. - 2:50
4 - All Kinda Crazy - 5:09
5 - Gonna Be Alright - 4:32
6 - Save A Peace For Me - 6:25
7 - Nothing To Lose - 4:02
8 - Ain't Gonna Get Me - 3:27
9 - Lost My Brain Once Again - 4:09
10 - It's Always Something - 3:38
11 - Cyco Miko Wants You - 4:31
12 - Ain't Mess'n Around - 5:55

EAC-Log, CUE-Sheed & NFO:

Click to open spoiler
Exact Audio Copy V1.0 beta 1 from 15. November 2010

EAC extraction logfile from 24. October 2011, 9:14

Cyco Miko / Lost My Brain! (Once Again)

Used drive : ASUS DRW-1814BL Adapter: 2 ID: 0

Read mode : Secure
Utilize accurate stream : Yes
Defeat audio cache : Yes
Make use of C2 pointers : No

Read offset correction : 6
Overread into Lead-In and Lead-Out : No
Fill up missing offset samples with silence : Yes
Delete leading and trailing silent blocks : No
Null samples used in CRC calculations : Yes
Used interface : Installed external ASPI interface

Used output format : Internal WAV Routines
Sample format : 44.100 Hz; 16 Bit; Stereo

TOC of the extracted CD

Track | Start | Length | Start sector | End sector
———————————————————
1 | 0:00.00 | 2:55.10 | 0 | 13134
2 | 2:55.10 | 4:15.12 | 13135 | 32271
3 | 7:10.22 | 2:50.60 | 32272 | 45081
4 | 10:01.07 | 5:09.15 | 45082 | 68271
5 | 15:10.22 | 4:32.58 | 68272 | 88729
6 | 19:43.05 | 6:25.10 | 88730 | 117614
7 | 26:08.15 | 4:02.05 | 117615 | 135769
8 | 30:10.20 | 3:27.27 | 135770 | 151321
9 | 33:37.47 | 4:09.73 | 151322 | 170069
10 | 37:47.45 | 3:38.40 | 170070 | 186459
11 | 41:26.10 | 4:31.62 | 186460 | 206846
12 | 45:57.72 | 5:55.55 | 206847 | 233526

Range status and errors

Selected range

Filename C:\AvaxHome.ru\Cyco Miko – Lost My Brain! (Once Again) [1995]\Cyco Miko – Lost My Brain! (Once Again).wav

Peak level 100.0 %
Extraction speed 0.2 X
Range quality 99.9 %
Test CRC 2AAAFACA
Copy CRC 2AAAFACA
Copy OK

No errors occurred

AccurateRip summary

Track 1 accurately ripped (confidence 7) [709CE7D7]
Track 2 accurately ripped (confidence 7) [B7D9A905]
Track 3 accurately ripped (confidence 7) [55E515B4]
Track 4 accurately ripped (confidence 7) [6ADFA700]
Track 5 accurately ripped (confidence 7) [F056E85B]
Track 6 accurately ripped (confidence 7) [48228F4C]
Track 7 accurately ripped (confidence 7) [EB907FEF]
Track 8 accurately ripped (confidence 7) [A348E9CE]
Track 9 accurately ripped (confidence 7) [C0609DC2]
Track 10 accurately ripped (confidence 7) [7F705B95]
Track 11 accurately ripped (confidence 7) [765FF32D]
Track 12 accurately ripped (confidence 7) [9E067D8C]

All tracks accurately ripped

End of status report

==== Log checksum 47D62FD25EC223593BB0A22955A7D804D053B9E0C78F15D697CE2F660779597D ====

REM GENRE “Punk Rock”
REM DATE 1995
REM DISCID A30C290C
REM COMMENT “ExactAudioCopy v1.0b1”
CATALOG 0000000000000
PERFORMER “Cyco Miko”
TITLE “Lost My Brain! (Once Again)”
FILE “Cyco Miko – Lost My Brain! (Once Again).flac” WAVE
TRACK 01 AUDIO
TITLE “I Love Destruction”
PERFORMER “Cyco Miko”
INDEX 01 00:00:00
TRACK 02 AUDIO
TITLE “All I Ever Get”
PERFORMER “Cyco Miko”
INDEX 00 02:54:70
INDEX 01 02:55:10
TRACK 03 AUDIO
TITLE “F.U.B.A.R.”
PERFORMER “Cyco Miko”
INDEX 00 07:09:72
INDEX 01 07:10:22
TRACK 04 AUDIO
TITLE “All Kinda Crazy”
PERFORMER “Cyco Miko”
INDEX 00 10:00:50
INDEX 01 10:01:07
TRACK 05 AUDIO
TITLE “Gonna Be Alright”
PERFORMER “Cyco Miko”
INDEX 00 15:09:60
INDEX 01 15:10:22
TRACK 06 AUDIO
TITLE “Save A Peace For Me”
PERFORMER “Cyco Miko”
INDEX 00 19:42:32
INDEX 01 19:43:05
TRACK 07 AUDIO
TITLE “Nothing To Lose”
PERFORMER “Cyco Miko”
INDEX 00 26:07:62
INDEX 01 26:08:15
TRACK 08 AUDIO
TITLE “Ain’t Gonna Get Me”
PERFORMER “Cyco Miko”
INDEX 00 30:09:72
INDEX 01 30:10:20
TRACK 09 AUDIO
TITLE “Lost My Brain Once Again”
PERFORMER “Cyco Miko”
INDEX 00 33:37:45
INDEX 01 33:37:47
TRACK 10 AUDIO
TITLE “It’s Always Something”
PERFORMER “Cyco Miko”
INDEX 00 37:47:12
INDEX 01 37:47:45
TRACK 11 AUDIO
TITLE “Cyco Miko Wants You”
PERFORMER “Cyco Miko”
INDEX 00 41:25:70
INDEX 01 41:26:10
TRACK 12 AUDIO
TITLE “Ain’t Mess ‘N Around”
PERFORMER “Cyco Miko”
INDEX 00 45:56:40
INDEX 01 45:57:72


Leave a Reply

Your email address will not be published. Required fields are marked *

This site uses Akismet to reduce spam. Learn how your comment data is processed.