Suicidal Tendencies – Controlled By Hatred/Feel Like Shit…Deja-Vu




Artist: Suicidal Tendencies
Year: 1989
Genre: Hardcore
Notes: Discogs
Add. Notes:
Cover incl.: Yes
Encoder: FLAC
Bitrate: ~1000 kBit/s (44.1 kHz/16 Bit/s)
Log & Cue incl.: Yes
Size: 284,3 MB
Password: “slam” (without ” “)


All Downloads/Hosters are compatible

Download 1
Turbobit.net
Rapidgator.net
KatFile.com
UploadRar.com
Download 2
Turbobit.net
Rapidgator.net
KatFile.com
UploadRar.com

Tracklist:

1 - Master Of No Mercy - 2:37
2 - How Will I Laugh Tomorrow (Video Edit) - 4:41
3 - Just Another Love Song - 3:15
4 - Waking The Dead - 6:54
5 - Controlled By Hatred - 5:38
6 - Choosing My Own Way Of Life - 3:04
7 - Feel Like Shit....Deja-Vu - 2:53
8 - It's Not Easy - 3:58
9 - How Will I Laugh Tomorrow (Heavy Emotion Version) - 
6:31

EAC-Log, CUE-Sheed & NFO:

Click to open spoiler
EAC extraction logfile from 27. June 2005, 10:22 for CD
Sucidal Tendencies / Controlled by Hatred/Feel Like Shit

Used drive : LITE-ON DVDRW LDW-811S Adapter: 0 ID: 1
Read mode : Secure with NO C2, accurate stream, disable cache
Read offset correction : 12
Overread into Lead-In and Lead-Out : No

Used output format : C:\Archivos de programa\FLAC\flac.exe (User Defined Encoder)
32 kBit/s
Additional command line options : -6 -V -T “artist=%a” -T “title=%t” -T “album=%g” -T “date=%y” -T “tracknumber=%n” -T “genre=%m” -T “comment=EAC 0.95beta5 / FLAC 1.1.2a q6” %s

Other options :
Fill up missing offset samples with silence : Yes
Delete leading and trailing silent blocks : No
Native Win32 interface for Win NT & 2000

Range status and errors
Selected range
Filename G:\Suicidal Tendencies-1989 Controlled By Hatred\Suicidal Tendencies-Controlled By Hatred-Feel Like Shit…Deja Vu.flac.wav

Peak level 97.7 %
Range quality 100.0 %
CRC D43031A3
Copy OK

No errors occured

End of status report

PERFORMER “Sucidal Tendencies”
TITLE “Controlled by Hatred/Feel Like Shit”
FILE “Suicidal Tendencies-Controlled By Hatred-Feel Like Shit…Deja Vu.flac” WAVE
TRACK 01 AUDIO
TITLE “Master Of No Mercy”
PERFORMER “Sucidal Tendencies”
INDEX 01 00:00:00
TRACK 02 AUDIO
TITLE “How Will I laugh Tomorrow (Video Edit)”
PERFORMER “Sucidal Tendencies”
INDEX 00 02:37:55
INDEX 01 02:38:00
TRACK 03 AUDIO
TITLE “Just Another Love Song”
PERFORMER “Sucidal Tendencies”
INDEX 00 07:19:17
INDEX 01 07:19:42
TRACK 04 AUDIO
TITLE “Waking The Dead”
PERFORMER “Sucidal Tendencies”
INDEX 00 10:35:30
INDEX 01 10:35:65
TRACK 05 AUDIO
TITLE “Controlled by Hatred”
PERFORMER “Sucidal Tendencies”
INDEX 00 17:29:72
INDEX 01 17:30:32
TRACK 06 AUDIO
TITLE “Choosing My Own Way of Life”
PERFORMER “Sucidal Tendencies”
INDEX 00 23:08:32
INDEX 01 23:09:10
TRACK 07 AUDIO
TITLE “Feel Like Shit….Deja-Vu”
PERFORMER “Sucidal Tendencies”
INDEX 00 26:13:70
INDEX 01 26:14:55
TRACK 08 AUDIO
TITLE “It’s Not Easy”
PERFORMER “Sucidal Tendencies”
INDEX 01 29:08:30
TRACK 09 AUDIO
TITLE “How Will I Laugh Tomorrow (Heavy Emotion Version)”
PERFORMER “Sucidal Tendencies”
INDEX 00 33:06:53
INDEX 01 33:08:05


Leave a Reply

Your email address will not be published. Required fields are marked *

This site uses Akismet to reduce spam. Learn how your comment data is processed.