Suicidal Tendencies – Controlled By Hatred / Feel Like Shit…Deja-Vu (Japanese Edition)




Artist: Suicidal Tendencies
Year: 1989
Genre: Metal
Notes: Discogs
Add. Notes: Japanese Edition
Cover incl.: Yes
Encoder: FLAC
Bitrate: ~1000 kBit/s (44.1 kHz/16 Bit/s)
Log & Cue incl.: Yes
Size: 303,98 MB
Password: “slam” (without ” “)


All Downloads/Hosters are compatible

Download 1
Turbobit.net
Rapidgator.net
KatFile.com
UploadRar.com
Download 2
Turbobit.net
Rapidgator.net
KatFile.com
UploadRar.com
Download 3
Turbobit.net
Rapidgator.net
KatFile.com
UploadRar.com

Tracklist:

1 - Master Of No Mercy - 2:37
2 - How Will I Laugh Tomorrow (Video Edit) - 4:41
3 - Just Another Love Song - 3:15
4 - Waking The Dead - 6:54
5 - Controlled By Hatred - 5:38
6 - Choosing My Own Way Of Life - 3:04
7 - Feel Like Shit...Deja Vu - 2:53
8 - It's Not Easy - 3:58
9 - How Will I Laugh Tomorrow (Heavy Emotion Version) - 
6:31

EAC-Log, CUE-Sheed & NFO:

Click to open spoiler
Exact Audio Copy V1.0 beta 3 from 29. August 2011

EAC extraction logfile from 21. August 2013, 18:13

Suicidal Tendencies / Controlled By Hatred / Feel Like Shit…Deja-Vu [Epic-Sony, 25 8P-5285, Japan]

Used drive : PIONEER DVD-RW DVR-112D Adapter: 0 ID: 0

Read mode : Secure
Utilize accurate stream : Yes
Defeat audio cache : Yes
Make use of C2 pointers : No

Read offset correction : 48
Overread into Lead-In and Lead-Out : No
Fill up missing offset samples with silence : Yes
Delete leading and trailing silent blocks : No
Null samples used in CRC calculations : Yes
Used interface : Installed external ASPI interface

Used output format : User Defined Encoder
Selected bitrate : 1024 kBit/s
Quality : High
Add ID3 tag : No
Command line compressor : C:\Program Files\Exact Audio Copy\FLAC\FLAC.EXE
Additional command line options : -V -8 -T “Date=%year%” -T “Genre=%genre%” %source%

TOC of the extracted CD

Track | Start | Length | Start sector | End sector
———————————————————
1 | 0:00.00 | 2:37.52 | 0 | 11826
2 | 2:37.52 | 4:41.43 | 11827 | 32944
3 | 7:19.20 | 3:16.20 | 32945 | 47664
4 | 10:35.40 | 6:54.42 | 47665 | 78756
5 | 17:30.07 | 5:38.55 | 78757 | 104161
6 | 23:08.62 | 3:05.43 | 104162 | 118079
7 | 26:14.30 | 2:53.32 | 118080 | 131086
8 | 29:07.62 | 3:59.70 | 131087 | 149081
9 | 33:07.57 | 6:32.05 | 149082 | 178486

Range status and errors

Selected range

Filename C:\CDRip by Deminbek\Suicidal Tendencies – Controlled By Hatred , Feel Like Shit…Deja-Vu [Epic-Sony, 25 8P-5285, Japan].wav

Peak level 97.7 %
Extraction speed 6.6 X
Range quality 100.0 %
Test CRC 35ACF57B
Copy CRC 35ACF57B
Copy OK

No errors occurred

AccurateRip summary

Track 1 accurately ripped (confidence 2) [F891C49F] (AR v1)
Track 2 accurately ripped (confidence 2) [3A6BCDC6] (AR v1)
Track 3 accurately ripped (confidence 2) [BB96CA39] (AR v1)
Track 4 accurately ripped (confidence 2) [3B4FC9E1] (AR v1)
Track 5 accurately ripped (confidence 2) [4997FD5C] (AR v1)
Track 6 accurately ripped (confidence 2) [E03EDF60] (AR v1)
Track 7 accurately ripped (confidence 2) [78EC1FC3] (AR v1)
Track 8 accurately ripped (confidence 2) [4E1AEF72] (AR v1)
Track 9 accurately ripped (confidence 2) [7C407F5B] (AR v1)

All tracks accurately ripped

End of status report

—- CUETools DB Plugin V2.1.3

[CTDB TOCID: D94OKZz24YgiN5lOjSteiGwZ2Ns-] found, Submit result: D94OKZz24YgiN5lOjSteiGwZ2Ns- has been confirmed
[b5cf444f] (2/2) Accurately ripped

==== Log checksum 0EE770263FFE1A939BF169A5D12A05754DB24A9DCE64C7FD02F2C7D7F0F0EF92 ====

REM GENRE “Heavy Metal”
REM DATE 1989
REM DISCID 82094B09
REM COMMENT “ExactAudioCopy v1.0b3”
PERFORMER “Suicidal Tendencies”
TITLE “Controlled By Hatred / Feel Like Shit…Deja-Vu [Epic-Sony, 25 8P-5285, Japan]”
FILE “Suicidal Tendencies – Controlled By Hatred , Feel Like Shit…Deja-Vu [Epic-Sony, 25 8P-5285, Japan].flac” WAVE
TRACK 01 AUDIO
TITLE “Master Of No Mercy”
PERFORMER “Suicidal Tendencies”
INDEX 01 00:00:00
TRACK 02 AUDIO
TITLE “How Will I Laugh Tomorrow (Video Edit)”
PERFORMER “Suicidal Tendencies”
INDEX 01 02:37:52
TRACK 03 AUDIO
TITLE “Just Another Love Song”
PERFORMER “Suicidal Tendencies”
INDEX 01 07:19:20
TRACK 04 AUDIO
TITLE “Waking The Dead”
PERFORMER “Suicidal Tendencies”
INDEX 01 10:35:40
TRACK 05 AUDIO
TITLE “Controlled By Hatred”
PERFORMER “Suicidal Tendencies”
INDEX 01 17:30:07
TRACK 06 AUDIO
TITLE “Choosing My Own Way Of Life”
PERFORMER “Suicidal Tendencies”
INDEX 01 23:08:62
TRACK 07 AUDIO
TITLE “Feel Like Shit…Deja Vu”
PERFORMER “Suicidal Tendencies”
INDEX 01 26:14:30
TRACK 08 AUDIO
TITLE “It’s Not Easy”
PERFORMER “Suicidal Tendencies”
INDEX 01 29:07:62
TRACK 09 AUDIO
TITLE “How Will I Laugh Tomorrow (Heavy Emotion Version)”
PERFORMER “Suicidal Tendencies”
INDEX 00 33:06:57
INDEX 01 33:07:57


Leave a Reply

Your email address will not be published. Required fields are marked *

This site uses Akismet to reduce spam. Learn how your comment data is processed.