Suggs – The Lone Ranger




No Cover available

Artist: Suggs
Year: 1995
Genre: Ska
Notes: Discogs
Add. Notes:
Watch Songs on: YouTube
Cover incl.: No
Encoder: FLAC
Bitrate: ~900 kBit/s (44.1 kHz/16 Bit/s)
Log & Cue incl.: Yes
Size: 322 MB
Password: “slam” (without ” “)


All Downloads/Hosters are compatible

Download 1
KatFile.com
Turbobit.net
FileFactory.com
Rapidgator.net
Download 2
KatFile.com
Turbobit.net
FileFactory.com
Rapidgator.net

Tracklist:

1 - I'm Only Sleeping - 4:20
2 - Camden Town - 3:52
3 - Alcohol - 4:27
4 - 4 AM - 3:32
5 - The Tune - 4:35
6 - Cecilia - 3:08
7 - Haunted - 3:53
8 - Off On Holiday - 4:04
9 - Green Eyes - 3:51
10 - Fortune Fish - 5:31
11 - She's Gone - 5:11

EAC-Log, CUE-Sheed & NFO:

Click to open spoiler
Exact Audio Copy V0.99 prebeta 4 from 23. January 2008

Отчёт EAC об извлечении, выполненном 18. марта 2008, 22:39

Suggs / The Lone Ranger

Дисковод: Optiarc DVD RW AD-7173S Adapter: 3 ID: 0

Режим чтения : Достоверность
Использование точного потока : Да
Отключение кэша аудио : Да
Использование указателей C2 : Нет

Коррекция смещения при чтении : 48
Способность читать области Lead-in и Lead-out : Нет
Заполнение пропущенных сэмплов тишиной : Да
Удаление блоков с тишиной в начале и конце : Нет
При вычислениях CRC использовались нулевые сэмплы : Да
Интерфейс : Установленный внешний ASPI-интерфейс

Выходной формат : Пользовательский кодировщик
Выбранный битрейт : 320 kBit/s
Качество : Высокий
Добавление ID3-тэга : Нет
Утилита сжатия : C:\Program Files\Exact Audio Copy\FLAC\flac.exe
Дополнительные параметры : -T “artist=%a” -T “title=%t” -T “album=%g” -T “date=%y” -T “tracknumber=%n” -T “genre=%m” -5 %s

TOC извлечённого CD

Трек | Старт | Длительность | Начальный сектор | Конечный сектор
———————————————————————
1 | 0:00.00 | 3:03.40 | 0 | 13764
2 | 3:03.40 | 2:45.27 | 13765 | 26166
3 | 5:48.67 | 4:20.00 | 26167 | 45666
4 | 10:08.67 | 3:54.25 | 45667 | 63241
5 | 14:03.17 | 3:31.35 | 63242 | 79101
6 | 17:34.52 | 4:34.08 | 79102 | 99659
7 | 22:08.60 | 4:34.17 | 99660 | 120226
8 | 26:43.02 | 4:03.73 | 120227 | 138524
9 | 30:47.00 | 3:50.55 | 138525 | 155829
10 | 34:37.55 | 5:26.45 | 155830 | 180324
11 | 40:04.25 | 4:26.50 | 180325 | 200324
12 | 44:31.00 | 5:11.60 | 200325 | 223709

Характеристики диапазона извлечения и сообщения об ошибках

Выбранный диапазон

Имя файла D:\01 – Музыка\01 – LOSSLESS\Madness (FLAC)\Suggs – The Lone Ranger.wav

Пиковый уровень 97.7 %
Качество диапазона 100.0 %
CRC копии E8B246D3
Копирование… OK

Ошибок не произошло

AccurateRip: сводка

Трек 1 нет в базе данных
Трек 2 нет в базе данных
Трек 3 нет в базе данных
Трек 4 нет в базе данных
Трек 5 нет в базе данных
Трек 6 нет в базе данных
Трек 7 нет в базе данных
Трек 8 нет в базе данных
Трек 9 нет в базе данных
Трек 10 нет в базе данных
Трек 11 нет в базе данных
Трек 12 нет в базе данных

Ни одного трека нет в базе AccurateRip

Конец отчёта

REM GENRE Ska
REM DATE 1995
REM DISCID 950BA60C
REM COMMENT “ExactAudioCopy v0.99pb4”
PERFORMER “Suggs”
TITLE “The Lone Ranger”
FILE “Suggs – The Lone Ranger.flac” WAVE
TRACK 01 AUDIO
TITLE “Cecilia”
PERFORMER “Suggs”
INDEX 01 00:00:00
TRACK 02 AUDIO
TITLE “No More Alcohol”
PERFORMER “Suggs”
INDEX 00 03:02:02
INDEX 01 03:03:40
TRACK 03 AUDIO
TITLE “I’m Only Sleeping”
PERFORMER “Suggs”
INDEX 00 05:47:30
INDEX 01 05:48:67
TRACK 04 AUDIO
TITLE “Camden Town”
PERFORMER “Suggs”
INDEX 00 10:07:30
INDEX 01 10:08:67
TRACK 05 AUDIO
TITLE “4am”
PERFORMER “Suggs”
INDEX 00 14:01:55
INDEX 01 14:03:17
TRACK 06 AUDIO
TITLE “The Tune”
PERFORMER “Suggs”
INDEX 00 17:33:15
INDEX 01 17:34:52
TRACK 07 AUDIO
TITLE “Haunted”
PERFORMER “Suggs”
INDEX 00 22:07:22
INDEX 01 22:08:60
TRACK 08 AUDIO
TITLE “Off On Holliday”
PERFORMER “Suggs”
INDEX 00 26:41:40
INDEX 01 26:43:02
TRACK 09 AUDIO
TITLE “Green Eyes”
PERFORMER “Suggs”
INDEX 00 30:45:37
INDEX 01 30:47:00
TRACK 10 AUDIO
TITLE “Fortune Fish”
PERFORMER “Suggs”
INDEX 00 34:36:17
INDEX 01 34:37:55
TRACK 11 AUDIO
TITLE “Alcohol”
PERFORMER “Suggs”
INDEX 00 40:02:62
INDEX 01 40:04:25
TRACK 12 AUDIO
TITLE “She’s Gone”
PERFORMER “Suggs”
INDEX 00 44:29:37
INDEX 01 44:31:00


Leave a Reply

Your email address will not be published. Required fields are marked *

This site uses Akismet to reduce spam. Learn how your comment data is processed.