Sugarcult – Wrap Me Up In Plastic (Limited Edition)




Artist: Sugarcult
Year: 2002
Genre: Punk
Notes: Discogs
Add. Notes: Limited Edition
Encoder: FLAC
Bitrate: ~900 kBit/s (44.1 kHz/16 Bit/s)
Bin/Cue incl.: Yes
Size: 243,1 MB
Password: “slam” (without ” “)


http://www.share-online.biz/dl/JBINLTRP6B

https://rapidgator.net/file/8840e530dd598ecbf6aba662d9b2d77f

https://uploadbyte.com/ea2ej3lyhur8

https://uploadever.com/e9pdhm0r1trn

https://justupload.io/8zo9b0g2mwnt

Tracklist:

1 - Over Now  
2 - Say I'm Sorry 
3 - Drive All Day  
4 - Bruises 
5 - Killing Me  
6 - I'm Alright 
7 - First Band On The Moon 
8 - Make Up 
9 - Superhyperspastic 
10 - Beautiful Stalker  
11 - Yesterday 
12 - Anna's Touch 
13 - Christine

EAC-Log, CUE-Sheed & NFO:

Click to open spoiler
Exact Audio Copy V0.99 prebeta 3 from 28. July 2007

EAC extraction logfile from 7. January 2008, 21:58

Sugarcult / Wrap Me Up In Plastic (Limited)

Used drive : SONY DVD RW DRU-810A Adapter: 4 ID: 0

Read mode : Secure
Utilize accurate stream : Yes
Defeat audio cache : Yes
Make use of C2 pointers : No

Read offset correction : 618
Overread into Lead-In and Lead-Out : No
Fill up missing offset samples with silence : Yes
Delete leading and trailing silent blocks : No
Null samples used in CRC calculations : Yes
Used interface : Installed external ASPI interface
Gap handling : Appended to previous track

Used output format : User Defined Encoder
Selected bitrate : 128 kBit/s
Quality : High
Add ID3 tag : No
Command line compressor : F:\Program Files\Exact Audio Copy\flac.exe
Additional command line options : -8 -A tukey(0.25) -A gauss(0.1875) -b 4096 -V -T “artist=%a” -T “title=%t” -T “album=%g” -T “date=%y” -T “tracknumber=%n” -T “genre=%m” %s –sector-align

TOC of the extracted CD

Track | Start | Length | Start sector | End sector
———————————————————
1 | 0:00.00 | 3:19.62 | 0 | 14986
2 | 3:19.62 | 2:26.01 | 14987 | 25937
3 | 5:45.63 | 3:28.00 | 25938 | 41537
4 | 9:13.63 | 2:36.01 | 41538 | 53238
5 | 11:49.64 | 2:14.68 | 53239 | 63356
6 | 14:04.57 | 3:07.01 | 63357 | 77382
7 | 17:11.58 | 3:00.59 | 77383 | 90941
8 | 20:12.42 | 3:21.51 | 90942 | 106067
9 | 23:34.18 | 2:59.44 | 106068 | 119536
10 | 26:33.62 | 2:16.54 | 119537 | 129790
11 | 28:50.41 | 2:59.43 | 129791 | 143258
12 | 31:50.09 | 2:05.45 | 143259 | 152678
13 | 33:55.54 | 3:10.37 | 152679 | 166965

Track 1

Filename C:\Torrent Uploads\Sugarcult – Wrap Me Up In Plastic (Limited)\01 – Over Now.wav

Pre-gap length 0:00:02.00

Peak level 100.0 %
Track quality 100.0 %
Test CRC 1093612B
Copy CRC 1093612B
Accurately ripped (confidence 1) [4F5BBC62]
Copy OK

Track 2

Filename C:\Torrent Uploads\Sugarcult – Wrap Me Up In Plastic (Limited)\02 – Say I’m Sorry.wav

Pre-gap length 0:00:01.98

Peak level 100.0 %
Track quality 100.0 %
Test CRC 8EC8B220
Copy CRC 8EC8B220
Accurately ripped (confidence 1) [7757DEBE]
Copy OK

Track 3

Filename C:\Torrent Uploads\Sugarcult – Wrap Me Up In Plastic (Limited)\03 – Drive All Day.wav

Pre-gap length 0:00:01.98

Peak level 100.0 %
Track quality 100.0 %
Test CRC 2A3CA2CE
Copy CRC 2A3CA2CE
Accurately ripped (confidence 1) [98FE3286]
Copy OK

Track 4

Filename C:\Torrent Uploads\Sugarcult – Wrap Me Up In Plastic (Limited)\04 – Bruises.wav

Pre-gap length 0:00:01.98

Peak level 52.1 %
Track quality 100.0 %
Test CRC 580A462E
Copy CRC 580A462E
Accurately ripped (confidence 1) [D7693CB4]
Copy OK

Track 5

Filename C:\Torrent Uploads\Sugarcult – Wrap Me Up In Plastic (Limited)\05 – Killing Me.wav

Pre-gap length 0:00:01.98

Peak level 100.0 %
Track quality 100.0 %
Test CRC 0FF8ACFF
Copy CRC 0FF8ACFF
Accurately ripped (confidence 1) [37CF7358]
Copy OK

Track 6

Filename C:\Torrent Uploads\Sugarcult – Wrap Me Up In Plastic (Limited)\06 – I’m Alright.wav

Pre-gap length 0:00:01.98

Peak level 100.0 %
Track quality 100.0 %
Test CRC E060F818
Copy CRC E060F818
Accurately ripped (confidence 1) [63D02F89]
Copy OK

Track 7

Filename C:\Torrent Uploads\Sugarcult – Wrap Me Up In Plastic (Limited)\07 – First Band on the Moon.wav

Pre-gap length 0:00:01.98

Peak level 100.0 %
Track quality 100.0 %
Test CRC 42041CD4
Copy CRC 42041CD4
Accurately ripped (confidence 1) [A4E567D0]
Copy OK

Track 8

Filename C:\Torrent Uploads\Sugarcult – Wrap Me Up In Plastic (Limited)\08 – Make Up.wav

Pre-gap length 0:00:01.98

Peak level 93.9 %
Track quality 100.0 %
Test CRC 0C00918B
Copy CRC 0C00918B
Accurately ripped (confidence 1) [C5BA6590]
Copy OK

Track 9

Filename C:\Torrent Uploads\Sugarcult – Wrap Me Up In Plastic (Limited)\09 – Superhyperspastic.wav

Pre-gap length 0:00:01.98

Peak level 99.9 %
Track quality 100.0 %
Test CRC 3240466C
Copy CRC 3240466C
Accurately ripped (confidence 1) [B86B29D7]
Copy OK

Track 10

Filename C:\Torrent Uploads\Sugarcult – Wrap Me Up In Plastic (Limited)\10 – Beautiful Stalker.wav

Pre-gap length 0:00:01.98

Peak level 99.9 %
Track quality 100.0 %
Test CRC B620385A
Copy CRC B620385A
Accurately ripped (confidence 1) [923FE7B4]
Copy OK

Track 11

Filename C:\Torrent Uploads\Sugarcult – Wrap Me Up In Plastic (Limited)\11 – Yesterday.wav

Pre-gap length 0:00:01.97

Peak level 88.9 %
Track quality 100.0 %
Test CRC A823FE0A
Copy CRC A823FE0A
Accurately ripped (confidence 1) [4D5E189E]
Copy OK

Track 12

Filename C:\Torrent Uploads\Sugarcult – Wrap Me Up In Plastic (Limited)\12 – Anna’s Touch.wav

Pre-gap length 0:00:01.98

Peak level 100.0 %
Track quality 100.0 %
Test CRC AA5989D4
Copy CRC AA5989D4
Accurately ripped (confidence 1) [905E1C85]
Copy OK

Track 13

Filename C:\Torrent Uploads\Sugarcult – Wrap Me Up In Plastic (Limited)\13 – Christine.wav

Pre-gap length 0:00:01.97

Peak level 100.0 %
Track quality 100.0 %
Test CRC E0F30840
Copy CRC E0F30840
Accurately ripped (confidence 1) [B5915FAE]
Copy OK

All tracks accurately ripped

No errors occurred

End of status report

REM GENRE Punk
REM DATE 2002
REM DISCID 9208B20D
REM COMMENT “ExactAudioCopy v0.99pb3”
PERFORMER “Sugarcult”
TITLE “Wrap Me Up In Plastic (Limited)”
FILE “01 – Over Now.wav” WAVE
TRACK 01 AUDIO
TITLE “Over Now”
PERFORMER “Sugarcult”
INDEX 01 00:00:00
TRACK 02 AUDIO
TITLE “Say I’m Sorry”
PERFORMER “Sugarcult”
FLAGS DCP
INDEX 00 03:17:63
FILE “02 – Say I’m Sorry.wav” WAVE
INDEX 01 00:00:00
TRACK 03 AUDIO
TITLE “Drive All Day”
PERFORMER “Sugarcult”
FLAGS DCP
INDEX 00 02:24:02
FILE “03 – Drive All Day.wav” WAVE
INDEX 01 00:00:00
TRACK 04 AUDIO
TITLE “Bruises”
PERFORMER “Sugarcult”
FLAGS DCP
INDEX 00 03:26:01
FILE “04 – Bruises.wav” WAVE
INDEX 01 00:00:00
TRACK 05 AUDIO
TITLE “Killing Me”
PERFORMER “Sugarcult”
FLAGS DCP
INDEX 00 02:34:02
FILE “05 – Killing Me.wav” WAVE
INDEX 01 00:00:00
TRACK 06 AUDIO
TITLE “I’m Alright”
PERFORMER “Sugarcult”
FLAGS DCP
INDEX 00 02:12:69
FILE “06 – I’m Alright.wav” WAVE
INDEX 01 00:00:00
TRACK 07 AUDIO
TITLE “First Band on the Moon”
PERFORMER “Sugarcult”
FLAGS DCP
INDEX 00 03:05:02
FILE “07 – First Band on the Moon.wav” WAVE
INDEX 01 00:00:00
TRACK 08 AUDIO
TITLE “Make Up”
PERFORMER “Sugarcult”
FLAGS DCP
INDEX 00 02:58:60
FILE “08 – Make Up.wav” WAVE
INDEX 01 00:00:00
TRACK 09 AUDIO
TITLE “Superhyperspastic”
PERFORMER “Sugarcult”
FLAGS DCP
INDEX 00 03:19:52
FILE “09 – Superhyperspastic.wav” WAVE
INDEX 01 00:00:00
TRACK 10 AUDIO
TITLE “Beautiful Stalker”
PERFORMER “Sugarcult”
FLAGS DCP
INDEX 00 02:57:45
FILE “10 – Beautiful Stalker.wav” WAVE
INDEX 01 00:00:00
TRACK 11 AUDIO
TITLE “Yesterday”
PERFORMER “Sugarcult”
FLAGS DCP
INDEX 00 02:14:56
FILE “11 – Yesterday.wav” WAVE
INDEX 01 00:00:00
TRACK 12 AUDIO
TITLE “Anna’s Touch”
PERFORMER “Sugarcult”
FLAGS DCP
INDEX 00 02:57:44
FILE “12 – Anna’s Touch.wav” WAVE
INDEX 01 00:00:00
TRACK 13 AUDIO
TITLE “Christine”
PERFORMER “Sugarcult”
FLAGS DCP
INDEX 00 02:03:47
FILE “13 – Christine.wav” WAVE
INDEX 01 00:00:00

Leave a Reply

Your email address will not be published. Required fields are marked *

Enter the text from the image below
 

This site uses Akismet to reduce spam. Learn how your comment data is processed.