Sugarcult – Palm Trees and Power Lines




Artist: Sugarcult
Year: 2004
Genre: Punk
Notes: Discogs
Add. Notes:
Encoder: FLAC
Bitrate: ~1000 kBit/s (44.1 kHz/16 Bit/s)
Bin/Cue incl.: Yes
Size: 286,33 MB
Password: “slam” (without ” “)


http://www.share-online.biz/dl/PW6LYSRPXCS
https://rapidgator.net/file/e687fecba2a2e550791a0198042f4a31
https://uploadbyte.com/yhxkpe0vismi
https://justupload.io/cu5jusuwe2r4
https://uploadever.com/shh5f2uowfo9

Tracklist:

1 - She's The Blade - 2:59
2 - Crying - 3:29
3 - Memory - 3:46
4 - Worst December - 3:37
5 - Back To California - 4:08
6 - Destination Anywhere - 3:51
7 - Champagne - 2:56
8 - What You Say - 2:39
9 - Over - 3:25
10 - Head Up - 3:57
11 - Counting Stars - 3:38
12 - Sign Off - 2:13

EAC-Log, CUE-Sheed & NFO:

Click to open spoiler
X Lossless Decoder version 20090320 (105.1)

XLD extraction logfile from 2009-05-03 20:52:58 -0700

Sugarcult / Palm Trees and Power Lines

Used drive : MATSHITA DVD-R UJ-846 (revision FA0G)

Use cdparanoia mode : YES (CDParanoia III 10.2 engine)
Disable audio cache : OK for the drive with cache less than 2750KB
Make use of C2 pointers : NO
Read offset correction : 102
Max retry count : 100

TOC of the extracted CD
Track | Start | Length | Start sector | End sector
———————————————————
1 | 00:00:00 | 02:59:18 | 0 | 13442
2 | 02:59:18 | 03:29:11 | 13443 | 29128
3 | 06:28:29 | 03:46:06 | 29129 | 46084
4 | 10:14:35 | 03:37:56 | 46085 | 62415
5 | 13:52:16 | 04:07:72 | 62416 | 81012
6 | 18:00:13 | 03:51:55 | 81013 | 98392
7 | 21:51:68 | 02:56:53 | 98393 | 111645
8 | 24:48:46 | 02:39:13 | 111646 | 123583
9 | 27:27:59 | 03:24:73 | 123584 | 138956
10 | 30:52:57 | 03:56:72 | 138957 | 156728
11 | 34:49:54 | 03:38:23 | 156729 | 173101
12 | 38:28:02 | 02:13:36 | 173102 | 183112
13 | 43:13:38 | 04:26:21 | 194513 | 214483

Track 01
Filename : /Users/Salim/Music/01 She’s The Blade.flac

CRC32 hash (test run) : 166BAC76
CRC32 hash : 166BAC76
CRC32 hash (skip zero) : E0884133
AccurateRip signature : 0D73509E
->Track not present in AccurateRip database.
Statistics
Read error : 0
Skipped (treated as error) : 0
Edge jitter error (maybe fixed) : 0
Atom jitter error (maybe fixed) : 0
Drift error (maybe fixed) : 0
Dropped bytes error (maybe fixed) : 0
Duplicated bytes error (maybe fixed) : 0
Inconsistency in error sectors : 0

Track 02
Filename : /Users/Salim/Music/02 Crying.flac

CRC32 hash (test run) : D653528D
CRC32 hash : D653528D
CRC32 hash (skip zero) : 8F98310B
AccurateRip signature : 37562196
->Track not present in AccurateRip database.
Statistics
Read error : 0
Skipped (treated as error) : 0
Edge jitter error (maybe fixed) : 0
Atom jitter error (maybe fixed) : 0
Drift error (maybe fixed) : 0
Dropped bytes error (maybe fixed) : 0
Duplicated bytes error (maybe fixed) : 0
Inconsistency in error sectors : 0

Track 03
Filename : /Users/Salim/Music/03 Memory.flac

CRC32 hash (test run) : 285E2B51
CRC32 hash : 285E2B51
CRC32 hash (skip zero) : A5187556
AccurateRip signature : 56252516
->Track not present in AccurateRip database.
Statistics
Read error : 0
Skipped (treated as error) : 0
Edge jitter error (maybe fixed) : 0
Atom jitter error (maybe fixed) : 0
Drift error (maybe fixed) : 0
Dropped bytes error (maybe fixed) : 0
Duplicated bytes error (maybe fixed) : 0
Inconsistency in error sectors : 0

Track 04
Filename : /Users/Salim/Music/04 Worst To December.flac

CRC32 hash (test run) : 18BA7EAA
CRC32 hash : 18BA7EAA
CRC32 hash (skip zero) : 7D1CA25F
AccurateRip signature : 7B05FAAC
->Track not present in AccurateRip database.
Statistics
Read error : 0
Skipped (treated as error) : 0
Edge jitter error (maybe fixed) : 0
Atom jitter error (maybe fixed) : 0
Drift error (maybe fixed) : 0
Dropped bytes error (maybe fixed) : 0
Duplicated bytes error (maybe fixed) : 0
Inconsistency in error sectors : 0

Track 05
Filename : /Users/Salim/Music/05 Back To California.flac

CRC32 hash (test run) : 98E5BAA9
CRC32 hash : 98E5BAA9
CRC32 hash (skip zero) : BD11A5D9
AccurateRip signature : 90F51CDA
->Track not present in AccurateRip database.
Statistics
Read error : 0
Skipped (treated as error) : 0
Edge jitter error (maybe fixed) : 0
Atom jitter error (maybe fixed) : 0
Drift error (maybe fixed) : 0
Dropped bytes error (maybe fixed) : 0
Duplicated bytes error (maybe fixed) : 0
Inconsistency in error sectors : 0

Track 06
Filename : /Users/Salim/Music/06 Destination Anywhere.flac

CRC32 hash (test run) : 939EBCE0
CRC32 hash : 939EBCE0
CRC32 hash (skip zero) : F1097755
AccurateRip signature : D071C8CE
->Track not present in AccurateRip database.
Statistics
Read error : 0
Skipped (treated as error) : 0
Edge jitter error (maybe fixed) : 0
Atom jitter error (maybe fixed) : 0
Drift error (maybe fixed) : 0
Dropped bytes error (maybe fixed) : 0
Duplicated bytes error (maybe fixed) : 0
Inconsistency in error sectors : 0

Track 07
Filename : /Users/Salim/Music/07 Champagne.flac

CRC32 hash (test run) : E8E144A9
CRC32 hash : E8E144A9
CRC32 hash (skip zero) : DFCE4EC2
AccurateRip signature : A5C5A440
->Track not present in AccurateRip database.
Statistics
Read error : 0
Skipped (treated as error) : 0
Edge jitter error (maybe fixed) : 0
Atom jitter error (maybe fixed) : 0
Drift error (maybe fixed) : 0
Dropped bytes error (maybe fixed) : 0
Duplicated bytes error (maybe fixed) : 0
Inconsistency in error sectors : 0

Track 08
Filename : /Users/Salim/Music/08 What You Say.flac

CRC32 hash (test run) : DA5D04CC
CRC32 hash : DA5D04CC
CRC32 hash (skip zero) : 4AEBA4AF
AccurateRip signature : 80A36201
->Track not present in AccurateRip database.
Statistics
Read error : 0
Skipped (treated as error) : 0
Edge jitter error (maybe fixed) : 0
Atom jitter error (maybe fixed) : 0
Drift error (maybe fixed) : 0
Dropped bytes error (maybe fixed) : 0
Duplicated bytes error (maybe fixed) : 0
Inconsistency in error sectors : 0

Track 09
Filename : /Users/Salim/Music/09 Over.flac

CRC32 hash (test run) : F6ECD32F
CRC32 hash : F6ECD32F
CRC32 hash (skip zero) : 591B550A
AccurateRip signature : A5D4B35B
->Track not present in AccurateRip database.
Statistics
Read error : 0
Skipped (treated as error) : 0
Edge jitter error (maybe fixed) : 0
Atom jitter error (maybe fixed) : 0
Drift error (maybe fixed) : 0
Dropped bytes error (maybe fixed) : 0
Duplicated bytes error (maybe fixed) : 0
Inconsistency in error sectors : 0

Track 10
Filename : /Users/Salim/Music/10 Head Up.flac

CRC32 hash (test run) : 2D65BD3F
CRC32 hash : 2D65BD3F
CRC32 hash (skip zero) : E92BF3D9
AccurateRip signature : EAE085B8
->Track not present in AccurateRip database.
Statistics
Read error : 0
Skipped (treated as error) : 0
Edge jitter error (maybe fixed) : 0
Atom jitter error (maybe fixed) : 0
Drift error (maybe fixed) : 0
Dropped bytes error (maybe fixed) : 0
Duplicated bytes error (maybe fixed) : 0
Inconsistency in error sectors : 0

Track 11
Filename : /Users/Salim/Music/11 Counting Stars.flac

CRC32 hash (test run) : A3234222
CRC32 hash : A3234222
CRC32 hash (skip zero) : CC232B48
AccurateRip signature : DD674A22
->Track not present in AccurateRip database.
Statistics
Read error : 0
Skipped (treated as error) : 0
Edge jitter error (maybe fixed) : 0
Atom jitter error (maybe fixed) : 0
Drift error (maybe fixed) : 0
Dropped bytes error (maybe fixed) : 0
Duplicated bytes error (maybe fixed) : 0
Inconsistency in error sectors : 0

Track 12
Filename : /Users/Salim/Music/12 Sign Off.flac

CRC32 hash (test run) : A774A6CE
CRC32 hash : A774A6CE
CRC32 hash (skip zero) : BDCE879B
AccurateRip signature : 562BCC0A
->Track not present in AccurateRip database.
Statistics
Read error : 0
Skipped (treated as error) : 0
Edge jitter error (maybe fixed) : 0
Atom jitter error (maybe fixed) : 0
Drift error (maybe fixed) : 0
Dropped bytes error (maybe fixed) : 0
Duplicated bytes error (maybe fixed) : 0
Inconsistency in error sectors : 0

No errors occurred

End of status report

TITLE “Palm Trees and Power Lines”
PERFORMER “Sugarcult”
FILE “01 She’s The Blade.wav” WAVE
TRACK 01 AUDIO
TITLE “She’s The Blade”
ISRC USAR50412168
INDEX 01 00:00:00
FILE “02 Crying.wav” WAVE
TRACK 02 AUDIO
TITLE “Crying”
ISRC USAR50412169
INDEX 01 00:00:00
TRACK 03 AUDIO
TITLE “Memory”
ISRC USAR50412170
INDEX 00 03:29:00
FILE “03 Memory.wav” WAVE
INDEX 01 00:00:00
FILE “04 Worst To December.wav” WAVE
TRACK 04 AUDIO
TITLE “Worst To December”
ISRC USAR50412171
INDEX 01 00:00:00
FILE “05 Back To California.wav” WAVE
TRACK 05 AUDIO
TITLE “Back To California”
ISRC USAR50412172
INDEX 01 00:00:00
TRACK 06 AUDIO
TITLE “Destination Anywhere”
ISRC USAR50412173
INDEX 00 04:07:42
FILE “06 Destination Anywhere.wav” WAVE
INDEX 01 00:00:00
TRACK 07 AUDIO
TITLE “Champagne”
ISRC USAR50412174
INDEX 00 03:49:45
FILE “07 Champagne.wav” WAVE
INDEX 01 00:00:00
TRACK 08 AUDIO
TITLE “What You Say”
ISRC USAR50412175
INDEX 00 02:55:69
FILE “08 What You Say.wav” WAVE
INDEX 01 00:00:00
FILE “09 Over.wav” WAVE
TRACK 09 AUDIO
TITLE “Over”
ISRC USAR50412176
INDEX 01 00:00:00
FILE “10 Head Up.wav” WAVE
TRACK 10 AUDIO
TITLE “Head Up”
ISRC USAR50412177
INDEX 01 00:00:00
FILE “11 Counting Stars.wav” WAVE
TRACK 11 AUDIO
TITLE “Counting Stars”
ISRC USAR50412178
INDEX 01 00:00:00
FILE “12 Sign Off.wav” WAVE
TRACK 12 AUDIO
TITLE “Sign Off”
ISRC USAR50412179
INDEX 01 00:00:00

Leave a Reply

Your email address will not be published. Required fields are marked *

This site uses Akismet to reduce spam. Learn how your comment data is processed.