Sugarcult – Lights Out




Artist: Sugarcult
Year: 2006
Genre: Rock
Notes: Discogs
Add. Notes:
Cover incl.: No
Encoder: FLAC
Bitrate: ~1000 kBit/s (44.1 kHz/16 Bit/s)
Log & Cue incl.: Yes
Size: 285,24 MB
Password: “slam” (without ” “)


All Downloads/Hosters are compatible

Download 1
Turbobit.net
Rapidgator.net
UploadEver.com
JustUpload.io
UsersDrive.com
Download 2
Turbobit.net
Rapidgator.net
UploadEver.com
JustUpload.io
UsersDrive.com
Download 3
Turbobit.net
Rapidgator.net
UploadEver.com
JustUpload.io
UsersDrive.com

Tracklist:

1 - Lights Out - 0:37
2 - Dead Living - 3:38
3 - Los Angeles - 3:57
4 - Do It Alone - 3:07
5 - Explode - 1:52
6 - Out Of Phase - 3:26
7 - Made A Mistake - 4:14
8 - Riot - 3:28
9 - Majoring In Minors - 2:55
10 - Shaking - 3:52
11 - The Investigation - 3:49
12 - Hiatus - 4:03

EAC-Log, CUE-Sheed & NFO:

Click to open spoiler
Exact Audio Copy V0.99 prebeta 4 from 23. January 2008

EAC extraction logfile from 6. May 2009, 0:20

Sugarcult / Lights Out

Used drive : Optiarc DVDRWBD BC-5600S Adapter: 1 ID: 0

Read mode : Secure
Utilize accurate stream : Yes
Defeat audio cache : Yes
Make use of C2 pointers : No

Read offset correction : 48
Overread into Lead-In and Lead-Out : No
Fill up missing offset samples with silence : Yes
Delete leading and trailing silent blocks : No
Null samples used in CRC calculations : Yes
Used interface : Native Win32 interface for Win NT & 2000
Gap handling : Appended to previous track

Used output format : User Defined Encoder
Selected bitrate : 128 kBit/s
Quality : High
Add ID3 tag : No
Command line compressor : C:\Program Files\Exact Audio Copy\Flac\flac.exe
Additional command line options : -V -8 -T “artist=%a” -T “title=%t” -T “album=%g” -T “date=%y” -T “tracknumber=%n” -T “genre=%m” %s

TOC of the extracted CD

Track | Start | Length | Start sector | End sector
———————————————————
1 | 0:00.00 | 0:37.60 | 0 | 2834
2 | 0:37.60 | 3:38.42 | 2835 | 19226
3 | 4:16.27 | 3:57.43 | 19227 | 37044
4 | 8:13.70 | 3:07.15 | 37045 | 51084
5 | 11:21.10 | 1:52.57 | 51085 | 59541
6 | 13:13.67 | 3:26.03 | 59542 | 74994
7 | 16:39.70 | 4:14.20 | 74995 | 94064
8 | 20:54.15 | 3:28.10 | 94065 | 109674
9 | 24:22.25 | 2:55.15 | 109675 | 122814
10 | 27:17.40 | 3:52.02 | 122815 | 140216
11 | 31:09.42 | 3:49.43 | 140217 | 157434
12 | 34:59.10 | 4:03.15 | 157435 | 175674

Track 1

Filename C:\EAC Extract Folder\01 – Lights Out.wav

Pre-gap length 0:00:02.00

Peak level 86.5 %
Track quality 100.0 %
Test CRC 680F7521
Copy CRC 680F7521
Accurately ripped (confidence 4) [2C2A8A5C]
Copy OK

Track 2

Filename C:\EAC Extract Folder\02 – Dead Living.wav

Peak level 99.4 %
Track quality 100.0 %
Test CRC B5F45DA6
Copy CRC B5F45DA6
Accurately ripped (confidence 4) [77364A66]
Copy OK

Track 3

Filename C:\EAC Extract Folder\03 – Los Angeles.wav

Peak level 99.3 %
Track quality 100.0 %
Test CRC FF8DEA91
Copy CRC FF8DEA91
Accurately ripped (confidence 4) [C8F490EA]
Copy OK

Track 4

Filename C:\EAC Extract Folder\04 – Do It Alone.wav

Peak level 99.3 %
Track quality 100.0 %
Test CRC A8AD2884
Copy CRC A8AD2884
Accurately ripped (confidence 4) [67841807]
Copy OK

Track 5

Filename C:\EAC Extract Folder\05 – Explode.wav

Peak level 99.6 %
Track quality 100.0 %
Test CRC 2C6806DD
Copy CRC 2C6806DD
Accurately ripped (confidence 4) [16B4DFC7]
Copy OK

Track 6

Filename C:\EAC Extract Folder\06 – Out Of Phase.wav

Peak level 100.0 %
Track quality 100.0 %
Test CRC FCC014B7
Copy CRC FCC014B7
Accurately ripped (confidence 4) [8E77EFA9]
Copy OK

Track 7

Filename C:\EAC Extract Folder\07 – Made A Mistake.wav

Peak level 99.6 %
Track quality 100.0 %
Test CRC 8A49CD77
Copy CRC 8A49CD77
Accurately ripped (confidence 4) [4260B041]
Copy OK

Track 8

Filename C:\EAC Extract Folder\08 – Riot.wav

Peak level 96.2 %
Track quality 100.0 %
Test CRC 441689C3
Copy CRC 441689C3
Accurately ripped (confidence 4) [9234F79F]
Copy OK

Track 9

Filename C:\EAC Extract Folder\09 – Majoring In Minors.wav

Peak level 100.0 %
Track quality 100.0 %
Test CRC FEB18218
Copy CRC FEB18218
Accurately ripped (confidence 4) [ADEEE078]
Copy OK

Track 10

Filename C:\EAC Extract Folder\10 – Shaking.wav

Peak level 99.3 %
Track quality 100.0 %
Test CRC 70809C5A
Copy CRC 70809C5A
Accurately ripped (confidence 4) [5FE0A591]
Copy OK

Track 11

Filename C:\EAC Extract Folder\11 – The Investigation.wav

Peak level 99.6 %
Track quality 100.0 %
Test CRC 6D153096
Copy CRC 6D153096
Accurately ripped (confidence 4) [9B410F74]
Copy OK

Track 12

Filename C:\EAC Extract Folder\12 – Hiatus.wav

Peak level 100.0 %
Track quality 100.0 %
Test CRC BDEBC82F
Copy CRC BDEBC82F
Accurately ripped (confidence 4) [AD0DB45D]
Copy OK

All tracks accurately ripped

No errors occurred

End of status report

REM GENRE Alternative
REM DATE 2006
REM DISCID 9C09260C
REM COMMENT “ExactAudioCopy v0.99pb4”
PERFORMER “Sugarcult”
TITLE “Lights Out”
FILE “01 – Lights Out.wav” WAVE
TRACK 01 AUDIO
TITLE “Lights Out”
PERFORMER “Sugarcult”
INDEX 01 00:00:00
FILE “02 – Dead Living.wav” WAVE
TRACK 02 AUDIO
TITLE “Dead Living”
PERFORMER “Sugarcult”
INDEX 01 00:00:00
FILE “03 – Los Angeles.wav” WAVE
TRACK 03 AUDIO
TITLE “Los Angeles”
PERFORMER “Sugarcult”
INDEX 01 00:00:00
FILE “04 – Do It Alone.wav” WAVE
TRACK 04 AUDIO
TITLE “Do It Alone”
PERFORMER “Sugarcult”
INDEX 01 00:00:00
FILE “05 – Explode.wav” WAVE
TRACK 05 AUDIO
TITLE “Explode”
PERFORMER “Sugarcult”
INDEX 01 00:00:00
FILE “06 – Out Of Phase.wav” WAVE
TRACK 06 AUDIO
TITLE “Out Of Phase”
PERFORMER “Sugarcult”
INDEX 01 00:00:00
FILE “07 – Made A Mistake.wav” WAVE
TRACK 07 AUDIO
TITLE “Made A Mistake”
PERFORMER “Sugarcult”
INDEX 01 00:00:00
FILE “08 – Riot.wav” WAVE
TRACK 08 AUDIO
TITLE “Riot”
PERFORMER “Sugarcult”
INDEX 01 00:00:00
FILE “09 – Majoring In Minors.wav” WAVE
TRACK 09 AUDIO
TITLE “Majoring In Minors”
PERFORMER “Sugarcult”
INDEX 01 00:00:00
FILE “10 – Shaking.wav” WAVE
TRACK 10 AUDIO
TITLE “Shaking”
PERFORMER “Sugarcult”
INDEX 01 00:00:00
FILE “11 – The Investigation.wav” WAVE
TRACK 11 AUDIO
TITLE “The Investigation”
PERFORMER “Sugarcult”
INDEX 01 00:00:00
FILE “12 – Hiatus.wav” WAVE
TRACK 12 AUDIO
TITLE “Hiatus”
PERFORMER “Sugarcult”
INDEX 01 00:00:00

Leave a Reply

Your email address will not be published. Required fields are marked *

This site uses Akismet to reduce spam. Learn how your comment data is processed.