Sugarcult – Eleven




Artist: Sugarcult
Year: 1999
Genre: Rock
Notes: Discogs
Add. Notes:
Encoder: FLAC
Bitrate: ~900 kBit/s (44.1 kHz/16 Bit/s)
Bin/Cue incl.: Yes
Size: 212,51 MB
Password: “slam” (without ” “)


http://www.share-online.biz/dl/TUT44RRPR7
https://rapidgator.net/file/14287ba3e6d5ea66a14c64e0a3816f52
https://uploadbyte.com/6uxugm5chhaa
https://uploadever.com/trtvmy7gx3hd

Tracklist:

1 - Debbie - 3:09
2 - Crashing Down - 4:01
3 - Makeup - 3:22
4 - I Changed My Name - 2:45
5 - Yesterday - 3:02
6 - Underwear - 3:00
7 - Superhyperspastic - 3:00
8 - Beautiful Stalker - 2:16
9 - Christine - 3:11
10 - Cyndi Lauper - 3:00
11 - Anna's Touch - 2:13

EAC-Log, CUE-Sheed & NFO:

Click to open spoiler
X Lossless Decoder version 20080926 (93.3)

XLD extraction logfile from 2008-12-02 15:21:07 -0800

Sugarcult / Eleven

Used drive : HL-DT-ST DVD-RW GWA-4165B (revision Q002)

Use cdparanoia mode : YES (CDParanoia III 10.2 engine)
Disable audio cache : OK for the drive with cache less than 2750KB
Make use of C2 pointers : NO
Read offset correction : 667
Max retry count : 100

TOC of the extracted CD
Track | Start | Length | Start sector | End sector
———————————————————
1 | 00:00:00 | 03:09:02 | 0 | 14176
2 | 03:09:02 | 04:01:19 | 14177 | 32270
3 | 07:10:21 | 03:22:58 | 32271 | 47478
4 | 10:33:04 | 02:45:05 | 47479 | 59858
5 | 13:18:09 | 03:02:33 | 59859 | 73541
6 | 16:20:42 | 03:00:19 | 73542 | 87060
7 | 19:20:61 | 03:00:08 | 87061 | 100568
8 | 22:20:69 | 02:16:66 | 100569 | 110834
9 | 24:37:60 | 03:11:33 | 110835 | 125192
10 | 27:49:18 | 03:00:46 | 125193 | 138738
11 | 30:49:64 | 02:13:62 | 138739 | 148775

Track 01
Filename : /Uploads/Sugarcult/Eleven FLAC/01 Sugarcult – Debbie.flac

CRC32 hash (test run) : F3E67B56
CRC32 hash : F3E67B56
CRC32 hash (skip zero) : 41E88935
AccurateRip signature : 30152B5B
->Track not present in AccurateRip database.
Statistics
Read error : 0
Skipped (treated as error) : 0
Edge jitter error (maybe fixed) : 0
Atom jitter error (maybe fixed) : 0
Drift error (maybe fixed) : 0
Dropped bytes error (maybe fixed) : 0
Duplicated bytes error (maybe fixed) : 0
Inconsistency in error sectors : 0

Track 02
Filename : /Uploads/Sugarcult/Eleven FLAC/02 Sugarcult – Crashing Down.flac

CRC32 hash (test run) : 469277A4
CRC32 hash : 469277A4
CRC32 hash (skip zero) : 2022709B
AccurateRip signature : F570C4C3
->Track not present in AccurateRip database.
Statistics
Read error : 0
Skipped (treated as error) : 0
Edge jitter error (maybe fixed) : 0
Atom jitter error (maybe fixed) : 0
Drift error (maybe fixed) : 0
Dropped bytes error (maybe fixed) : 0
Duplicated bytes error (maybe fixed) : 0
Inconsistency in error sectors : 0

Track 03
Filename : /Uploads/Sugarcult/Eleven FLAC/03 Sugarcult – Makeup (Pretty Waste).flac

CRC32 hash (test run) : 55D9609B
CRC32 hash : 55D9609B
CRC32 hash (skip zero) : FF508F5A
AccurateRip signature : 65A70318
->Track not present in AccurateRip database.
Statistics
Read error : 0
Skipped (treated as error) : 0
Edge jitter error (maybe fixed) : 0
Atom jitter error (maybe fixed) : 0
Drift error (maybe fixed) : 0
Dropped bytes error (maybe fixed) : 0
Duplicated bytes error (maybe fixed) : 0
Inconsistency in error sectors : 0

Track 04
Filename : /Uploads/Sugarcult/Eleven FLAC/04 Sugarcult – I Changed My Name.flac

CRC32 hash (test run) : 9EB65ABF
CRC32 hash : 9EB65ABF
CRC32 hash (skip zero) : 1C25FC96
AccurateRip signature : C1103379
->Track not present in AccurateRip database.
Statistics
Read error : 0
Skipped (treated as error) : 0
Edge jitter error (maybe fixed) : 0
Atom jitter error (maybe fixed) : 0
Drift error (maybe fixed) : 0
Dropped bytes error (maybe fixed) : 0
Duplicated bytes error (maybe fixed) : 0
Inconsistency in error sectors : 0

Track 05
Filename : /Uploads/Sugarcult/Eleven FLAC/05 Sugarcult – Yesterday (Insane).flac

CRC32 hash (test run) : 6CBB6A6C
CRC32 hash : 6CBB6A6C
CRC32 hash (skip zero) : B04FCA2D
AccurateRip signature : 3AF340C0
->Track not present in AccurateRip database.
Statistics
Read error : 0
Skipped (treated as error) : 0
Edge jitter error (maybe fixed) : 1
Atom jitter error (maybe fixed) : 0
Drift error (maybe fixed) : 0
Dropped bytes error (maybe fixed) : 0
Duplicated bytes error (maybe fixed) : 0
Inconsistency in error sectors : 0

Track 06
Filename : /Uploads/Sugarcult/Eleven FLAC/06 Sugarcult – Underwear.flac

CRC32 hash (test run) : CA6F38CB
CRC32 hash : CA6F38CB
CRC32 hash (skip zero) : 7A027FDE
AccurateRip signature : 7599DE9A
->Track not present in AccurateRip database.
Statistics
Read error : 0
Skipped (treated as error) : 0
Edge jitter error (maybe fixed) : 0
Atom jitter error (maybe fixed) : 0
Drift error (maybe fixed) : 0
Dropped bytes error (maybe fixed) : 0
Duplicated bytes error (maybe fixed) : 0
Inconsistency in error sectors : 0

Track 07
Filename : /Uploads/Sugarcult/Eleven FLAC/07 Sugarcult – Superhyperspastic.flac

CRC32 hash (test run) : 10E40B1B
CRC32 hash : 10E40B1B
CRC32 hash (skip zero) : EDA7FB3F
AccurateRip signature : BF2DAEAC
->Track not present in AccurateRip database.
Statistics
Read error : 0
Skipped (treated as error) : 0
Edge jitter error (maybe fixed) : 0
Atom jitter error (maybe fixed) : 0
Drift error (maybe fixed) : 0
Dropped bytes error (maybe fixed) : 0
Duplicated bytes error (maybe fixed) : 0
Inconsistency in error sectors : 0

Track 08
Filename : /Uploads/Sugarcult/Eleven FLAC/08 Sugarcult – Beautiful Stalker.flac

CRC32 hash (test run) : CC2D599D
CRC32 hash : CC2D599D
CRC32 hash (skip zero) : C6DDF58F
AccurateRip signature : C17DE517
->Track not present in AccurateRip database.
Statistics
Read error : 0
Skipped (treated as error) : 0
Edge jitter error (maybe fixed) : 0
Atom jitter error (maybe fixed) : 0
Drift error (maybe fixed) : 0
Dropped bytes error (maybe fixed) : 0
Duplicated bytes error (maybe fixed) : 0
Inconsistency in error sectors : 0

Track 09
Filename : /Uploads/Sugarcult/Eleven FLAC/09 Sugarcult – Christine.flac

CRC32 hash (test run) : ECFC916C
CRC32 hash : ECFC916C
CRC32 hash (skip zero) : 925564F9
AccurateRip signature : 974A0E26
->Track not present in AccurateRip database.
Statistics
Read error : 0
Skipped (treated as error) : 0
Edge jitter error (maybe fixed) : 0
Atom jitter error (maybe fixed) : 0
Drift error (maybe fixed) : 0
Dropped bytes error (maybe fixed) : 0
Duplicated bytes error (maybe fixed) : 0
Inconsistency in error sectors : 0

Track 10
Filename : /Uploads/Sugarcult/Eleven FLAC/10 Sugarcult – Cyndi Lauper.flac

CRC32 hash (test run) : EB30B9DD
CRC32 hash : EB30B9DD
CRC32 hash (skip zero) : D1F68B49
AccurateRip signature : D3641F11
->Track not present in AccurateRip database.
Statistics
Read error : 0
Skipped (treated as error) : 0
Edge jitter error (maybe fixed) : 0
Atom jitter error (maybe fixed) : 0
Drift error (maybe fixed) : 0
Dropped bytes error (maybe fixed) : 0
Duplicated bytes error (maybe fixed) : 0
Inconsistency in error sectors : 0

Track 11
Filename : /Uploads/Sugarcult/Eleven FLAC/11 Sugarcult – Anna’s Touch.flac

CRC32 hash (test run) : A09655A2
CRC32 hash : A09655A2
CRC32 hash (skip zero) : 6F77A38D
AccurateRip signature : 9321847C
->Track not present in AccurateRip database.
Statistics
Read error : 0
Skipped (treated as error) : 0
Edge jitter error (maybe fixed) : 2
Atom jitter error (maybe fixed) : 1
Drift error (maybe fixed) : 0
Dropped bytes error (maybe fixed) : 0
Duplicated bytes error (maybe fixed) : 0
Inconsistency in error sectors : 0

No errors occurred

End of status report

TITLE “Eleven”
PERFORMER “Sugarcult”
REM GENRE “Alternative & Punk”
REM DATE 1999
FILE “01 Sugarcult – Debbie.wav” WAVE
TRACK 01 AUDIO
TITLE “Debbie”
INDEX 01 00:00:00
TRACK 02 AUDIO
TITLE “Crashing Down”
INDEX 00 03:07:03
FILE “02 Sugarcult – Crashing Down.wav” WAVE
INDEX 01 00:00:00
TRACK 03 AUDIO
TITLE “Makeup (Pretty Waste)”
INDEX 00 03:59:20
FILE “03 Sugarcult – Makeup (Pretty Waste).wav” WAVE
INDEX 01 00:00:00
TRACK 04 AUDIO
TITLE “I Changed My Name”
INDEX 00 03:20:59
FILE “04 Sugarcult – I Changed My Name.wav” WAVE
INDEX 01 00:00:00
TRACK 05 AUDIO
TITLE “Yesterday (Insane)”
INDEX 00 02:43:06
FILE “05 Sugarcult – Yesterday (Insane).wav” WAVE
INDEX 01 00:00:00
TRACK 06 AUDIO
TITLE “Underwear”
INDEX 00 03:00:34
FILE “06 Sugarcult – Underwear.wav” WAVE
INDEX 01 00:00:00
TRACK 07 AUDIO
TITLE “Superhyperspastic”
INDEX 00 02:58:20
FILE “07 Sugarcult – Superhyperspastic.wav” WAVE
INDEX 01 00:00:00
TRACK 08 AUDIO
TITLE “Beautiful Stalker”
INDEX 00 02:58:09
FILE “08 Sugarcult – Beautiful Stalker.wav” WAVE
INDEX 01 00:00:00
TRACK 09 AUDIO
TITLE “Christine”
INDEX 00 02:14:67
FILE “09 Sugarcult – Christine.wav” WAVE
INDEX 01 00:00:00
TRACK 10 AUDIO
TITLE “Cyndi Lauper”
INDEX 00 03:09:34
FILE “10 Sugarcult – Cyndi Lauper.wav” WAVE
INDEX 01 00:00:00
TRACK 11 AUDIO
TITLE “Anna’s Touch”
INDEX 00 02:58:47
FILE “11 Sugarcult – Anna’s Touch.wav” WAVE
INDEX 01 00:00:00

Leave a Reply

Your email address will not be published. Required fields are marked *

This site uses Akismet to reduce spam. Learn how your comment data is processed.