Sublime – War On The Blvd




No Cover available

Artist: Sublime
Year: 2003
Genre: Ska
Notes: Discogs
Add. Notes:
Watch Songs on: YouTube
Cover incl.: Yes
Encoder: FLAC
Bitrate: ~800 kBit/s (44.1 kHz/16 Bit/s)
Log & Cue incl.: Yes
Size: 194,2 MB
Password: “slam” (without ” “)


All Downloads/Hosters are compatible

Download 1
KatFile.com
Turbobit.net
Rapidgator.net
FileFactory.com
Download 2
KatFile.com
Turbobit.net
Rapidgator.net
FileFactory.com

Tracklist:

1. All You Need 2:43
2. Dachau Cabana (Vandals Cover) 2:22
3. Just Another Day Falling 1:04
4. Legalize It 7:23
5. Opening Dub 4:22
6. Practice Jam 1 2:25
7. Practice Jam 2 3:02
8. Prince of Sin (Falling Idols Cover) 1:39
9. Seed (demo) 0:45
10. Sour Grapes (Descendants Cover) 4:15
11. War on the Boulevard (Falling Idols Cover) 1:36
12. What's Really Going Wrong 2:43 

EAC-Log, CUE-Sheed & NFO:

Click to open spoiler
EAC extraction logfile from 17. May 2007, 22:51 for CD
Sublime / War On The Blvd.

Used drive : SONY CDRW/DVD CRX830E Adapter: 0 ID: 0
Read mode : Secure with NO C2, accurate stream, disable cache
Read offset correction : 0
Overread into Lead-In and Lead-Out : No

Used output format : C:\Program Files\Exact Audio Copy\flac.exe (User Defined Encoder)
192 kBit/s
Additional command line options : -8 -A tukey(0.25) -A gauss(0.1875) -b 4096 -V -T “artist=%a” -T “title=%t” -T “album=%g” -T “date=%y” -T “tracknumber=%n” -T “genre=%m” %s –sector-align

Other options :
Fill up missing offset samples with silence : Yes
Delete leading and trailing silent blocks : No
Installed external ASPI interface

Track 1
Filename C:\Documents and Settings\Riley\Desktop\War On The Blvd\01 – Sublime – Opening Dub.wav

Pre-gap length 0:00:02.00

Peak level 100.0 %
Track quality 100.0 %
Test CRC 3FBEDC70
Copy CRC 3FBEDC70
Copy OK

Track 2
Filename C:\Documents and Settings\Riley\Desktop\War On The Blvd\02 – Sublime – Legalize It.wav

Peak level 100.0 %
Track quality 100.0 %
Test CRC 8271A843
Copy CRC 8271A843
Copy OK

Track 3
Filename C:\Documents and Settings\Riley\Desktop\War On The Blvd\03 – Sublime – What’s Really Gone Wrong.wav

Peak level 100.0 %
Track quality 100.0 %
Test CRC 0BC867AD
Copy CRC 0BC867AD
Copy OK

Track 4
Filename C:\Documents and Settings\Riley\Desktop\War On The Blvd\04 – Sublime – All U Need.wav

Peak level 100.0 %
Track quality 100.0 %
Test CRC F562B7C6
Copy CRC F562B7C6
Copy OK

Track 5
Filename C:\Documents and Settings\Riley\Desktop\War On The Blvd\05 – Sublime – Practice Jam 1.wav

Peak level 89.6 %
Track quality 100.0 %
Test CRC EFDE0B70
Copy CRC EFDE0B70
Copy OK

Track 6
Filename C:\Documents and Settings\Riley\Desktop\War On The Blvd\06 – Sublime – Practice Jam 2.wav

Peak level 76.4 %
Track quality 100.0 %
Test CRC 91803B63
Copy CRC 91803B63
Copy OK

Track 7
Filename C:\Documents and Settings\Riley\Desktop\War On The Blvd\07 – Sublime – Seed (pre self titled).wav

Peak level 77.0 %
Track quality 100.0 %
Test CRC 50C30544
Copy CRC 50C30544
Copy OK

Track 8
Filename C:\Documents and Settings\Riley\Desktop\War On The Blvd\08 – Sublime – Prince of Sin (Falling Idols Cover).wav

Peak level 94.1 %
Track quality 100.0 %
Test CRC 399578BB
Copy CRC 399578BB
Copy OK

Track 9
Filename C:\Documents and Settings\Riley\Desktop\War On The Blvd\09 – Sublime – Just Another Day (Falling Idols Cover).wav

Peak level 85.4 %
Track quality 100.0 %
Test CRC B77A57C3
Copy CRC B77A57C3
Copy OK

Track 10
Filename C:\Documents and Settings\Riley\Desktop\War On The Blvd\10 – Sublime – War On The Blvd. (Falling Idols Cover).wav

Peak level 95.6 %
Track quality 100.0 %
Test CRC AF07F62F
Copy CRC AF07F62F
Copy OK

Track 11
Filename C:\Documents and Settings\Riley\Desktop\War On The Blvd\11 – Sublime – Dachau Cabana (Vandals Cover).wav

Peak level 99.3 %
Track quality 100.0 %
Test CRC 7238CE9B
Copy CRC 7238CE9B
Copy OK

Track 12
Filename C:\Documents and Settings\Riley\Desktop\War On The Blvd\12 – Sublime – Sour Grapes (Descendants Cover).wav

Peak level 89.7 %
Track quality 100.0 %
Test CRC DB14FC40
Copy CRC DB14FC40
Copy OK

No errors occured

End of status report

AUDIOCHECKER v1.2 – by Dester – opdester@freemail.hu
~~~~~~~~~~~~~~~~~

01 -===- E:\Music\+ Lossless\Sublime\Bootlegs\2003 – War On The Blvd\01. Opening Dub.flac
Extracted successfully
Conclusion: This track looks like CDDA with probability 100%

02 -===- E:\Music\+ Lossless\Sublime\Bootlegs\2003 – War On The Blvd\02. Legalize It.flac
Extracted successfully
Conclusion: This track looks like CDDA with probability 100%

03 -===- E:\Music\+ Lossless\Sublime\Bootlegs\2003 – War On The Blvd\03. What’s Really Gone Wrong.flac
Extracted successfully
Conclusion: This track looks like CDDA with probability 99%

04 -===- E:\Music\+ Lossless\Sublime\Bootlegs\2003 – War On The Blvd\04. All U Need.flac
Extracted successfully
Conclusion: This track looks like CDDA with probability 100%

05 -===- E:\Music\+ Lossless\Sublime\Bootlegs\2003 – War On The Blvd\05. Practice Jam 1.flac
Extracted successfully
Conclusion: This track looks like CDDA with probability 100%

06 -===- E:\Music\+ Lossless\Sublime\Bootlegs\2003 – War On The Blvd\06. Practice Jam 2.flac
Extracted successfully
Conclusion: This track looks like CDDA with probability 100%

07 -===- E:\Music\+ Lossless\Sublime\Bootlegs\2003 – War On The Blvd\07. Seed (pre self titled).flac
Extracted successfully
Conclusion: This track looks like CDDA with probability 100%

08 -===- E:\Music\+ Lossless\Sublime\Bootlegs\2003 – War On The Blvd\08. Prince of Sin (Falling Idols Cover).flac
Extracted successfully
Conclusion: This track looks like CDDA with probability 100%

09 -===- E:\Music\+ Lossless\Sublime\Bootlegs\2003 – War On The Blvd\09. Just Another Day (Falling Idols Cover).flac
Extracted successfully
Conclusion: This track looks like CDDA with probability 100%

10 -===- E:\Music\+ Lossless\Sublime\Bootlegs\2003 – War On The Blvd\10. War On The Blvd. (Falling Idols Cover).flac
Extracted successfully
Conclusion: This track looks like CDDA with probability 100%

11 -===- E:\Music\+ Lossless\Sublime\Bootlegs\2003 – War On The Blvd\11. Dachau Cabana (Vandals Cover).flac
Extracted successfully
Conclusion: This track looks like CDDA with probability 100%

12 -===- E:\Music\+ Lossless\Sublime\Bootlegs\2003 – War On The Blvd\12. Sour Grapes (Descendants Cover).flac
Extracted successfully
Conclusion: This track looks like CDDA with probability 100%


Leave a Reply

Your email address will not be published. Required fields are marked *

This site uses Akismet to reduce spam. Learn how your comment data is processed.