Sublime – The Black Album # 2




No Cover available

Artist: Sublime
Year: 2000
Genre: Ska
Notes: Discogs
Add. Notes:
Watch Songs on: YouTube
Cover incl.: Yes
Encoder: FLAC
Bitrate: ~800 kBit/s (44.1 kHz/16 Bit/s)
Log & Cue incl.: Yes
Size: 297,6 MB
Password: “slam” (without ” “)


All Downloads/Hosters are compatible

Download 1
KatFile.com
Turbobit.net
Rapidgator.net
FileFactory.com
Download 2
KatFile.com
Turbobit.net
Rapidgator.net
FileFactory.com

Tracklist:

1 - Greatest Hits / 5446 / Don't Push / Garden Grove / 
Get Out - 11:46
2 - Extra Take - 2:38
3 - Eireen (Freestyle) - 4:33
4 - Badfish / Scarlet Begonias / 40oz. To Freedom / Saw 
Red - 12:30
5 - The Dance Can't Go On (Without The D.J.) / You Are 
Getting Restless - 4:04
6 - All You Need / Birthstone / Ebin / I'll Be The One - 
13:03

EAC-Log, CUE-Sheed & NFO:

Click to open spoiler
X Lossless Decoder version 20090320 (105.1)

XLD extraction logfile from 2009-05-07 23:34:12 -0500

Sublime / The Black Album #2

Used drive : MATSHITA DVD-R UJ-857D (revision KCVB)

Use cdparanoia mode : YES (CDParanoia III 10.2 engine)
Disable audio cache : OK for the drive with cache less than 2750KB
Make use of C2 pointers : NO
Read offset correction : 102
Max retry count : 100

TOC of the extracted CD
Track | Start | Length | Start sector | End sector
———————————————————
1 | 00:00:00 | 11:46:09 | 0 | 52958
2 | 11:46:09 | 02:38:74 | 52959 | 64882
3 | 14:25:08 | 04:33:03 | 64883 | 85360
4 | 18:58:11 | 12:30:40 | 85361 | 141650
5 | 31:28:51 | 04:04:22 | 141651 | 159972
6 | 35:32:73 | 13:03:47 | 159973 | 218744

Track 01
Filename : /Users/justinorourke/Desktop/Sublime – The Black Album 2/01 Sublime – Greatest Hits/5446/Don’t Push/Garden Grove/Get Out-Las Vegas.flac

CRC32 hash (test run) : ED5CA3E8
CRC32 hash : ED5CA3E8
CRC32 hash (skip zero) : 63749D07
AccurateRip signature : 115671FA
->Track not present in AccurateRip database.
Statistics
Read error : 0
Skipped (treated as error) : 0
Edge jitter error (maybe fixed) : 0
Atom jitter error (maybe fixed) : 0
Drift error (maybe fixed) : 0
Dropped bytes error (maybe fixed) : 0
Duplicated bytes error (maybe fixed) : 0
Inconsistency in error sectors : 0

Track 02
Filename : /Users/justinorourke/Desktop/Sublime – The Black Album 2/02 Sublime – Extra Take – Studio Austin, TX.flac

CRC32 hash (test run) : FB6B143C
CRC32 hash : FB6B143C
CRC32 hash (skip zero) : 8229DA47
AccurateRip signature : F1B0278A
->Track not present in AccurateRip database.
Statistics
Read error : 0
Skipped (treated as error) : 0
Edge jitter error (maybe fixed) : 0
Atom jitter error (maybe fixed) : 0
Drift error (maybe fixed) : 0
Dropped bytes error (maybe fixed) : 0
Duplicated bytes error (maybe fixed) : 0
Inconsistency in error sectors : 0

Track 03
Filename : /Users/justinorourke/Desktop/Sublime – The Black Album 2/03 Sublime – Eireen (Freestyle) – Studio Austin, TX.flac

CRC32 hash (test run) : D603DA9B
CRC32 hash : D603DA9B
CRC32 hash (skip zero) : 252EC4CC
AccurateRip signature : 586D9155
->Track not present in AccurateRip database.
Statistics
Read error : 0
Skipped (treated as error) : 0
Edge jitter error (maybe fixed) : 0
Atom jitter error (maybe fixed) : 0
Drift error (maybe fixed) : 0
Dropped bytes error (maybe fixed) : 0
Duplicated bytes error (maybe fixed) : 0
Inconsistency in error sectors : 0

Track 04
Filename : /Users/justinorourke/Desktop/Sublime – The Black Album 2/04 Sublime – Badfish/Scarlet Begonias/40 OZ To Freedom/Saw Red with Gwen Stefani.flac

CRC32 hash (test run) : FAD28317
CRC32 hash : FAD28317
CRC32 hash (skip zero) : A44D4A4E
AccurateRip signature : 49E3BFC2
->Track not present in AccurateRip database.
Statistics
Read error : 0
Skipped (treated as error) : 0
Edge jitter error (maybe fixed) : 0
Atom jitter error (maybe fixed) : 0
Drift error (maybe fixed) : 0
Dropped bytes error (maybe fixed) : 0
Duplicated bytes error (maybe fixed) : 0
Inconsistency in error sectors : 0

Track 05
Filename : /Users/justinorourke/Desktop/Sublime – The Black Album 2/05 Sublime – The Dance Can’t Go On (Without the D.J.)/You Are Getting Restless – Zed’s Long Beach.flac

CRC32 hash (test run) : 57226526
CRC32 hash : 57226526
CRC32 hash (skip zero) : 1D8F5070
AccurateRip signature : 577ED91B
->Track not present in AccurateRip database.
Statistics
Read error : 0
Skipped (treated as error) : 0
Edge jitter error (maybe fixed) : 0
Atom jitter error (maybe fixed) : 0
Drift error (maybe fixed) : 0
Dropped bytes error (maybe fixed) : 0
Duplicated bytes error (maybe fixed) : 0
Inconsistency in error sectors : 0

Track 06
Filename : /Users/justinorourke/Desktop/Sublime – The Black Album 2/06 Sublime – All You Need/Birthstone/Ebin/I’ll Be the One – Salt Lake.flac

CRC32 hash (test run) : 4A365F14
CRC32 hash : 4A365F14
CRC32 hash (skip zero) : B9335264
AccurateRip signature : 7B372C55
->Track not present in AccurateRip database.
Statistics
Read error : 0
Skipped (treated as error) : 0
Edge jitter error (maybe fixed) : 0
Atom jitter error (maybe fixed) : 0
Drift error (maybe fixed) : 0
Dropped bytes error (maybe fixed) : 0
Duplicated bytes error (maybe fixed) : 0
Inconsistency in error sectors : 0

No errors occurred

End of status report

TITLE “The Black Album #2”
PERFORMER “Sublime”
REM GENRE “Alternative & Punk”
REM DATE 2001
FILE “01 Sublime – Greatest Hits/5446/Don’t Push/Garden Grove/Get Out-Las Vegas.wav” WAVE
TRACK 01 AUDIO
TITLE “Greatest Hits/5446/Don’t Push/Garden Grove/Get Out-Las Vegas”
INDEX 01 00:00:00
TRACK 02 AUDIO
TITLE “Extra Take – Studio Austin, TX”
INDEX 00 11:44:09
FILE “02 Sublime – Extra Take – Studio Austin, TX.wav” WAVE
INDEX 01 00:00:00
TRACK 03 AUDIO
TITLE “Eireen (Freestyle) – Studio Austin, TX”
INDEX 00 02:36:74
FILE “03 Sublime – Eireen (Freestyle) – Studio Austin, TX.wav” WAVE
INDEX 01 00:00:00
TRACK 04 AUDIO
TITLE “Badfish/Scarlet Begonias/40 OZ To Freedom/Saw Red with Gwen Stefani”
INDEX 00 04:31:03
FILE “04 Sublime – Badfish/Scarlet Begonias/40 OZ To Freedom/Saw Red with Gwen Stefani.wav” WAVE
INDEX 01 00:00:00
TRACK 05 AUDIO
TITLE “The Dance Can’t Go On (Without the D.J.)/You Are Getting Restless – Zed’s Long Beach”
INDEX 00 12:28:40
FILE “05 Sublime – The Dance Can’t Go On (Without the D.J.)/You Are Getting Restless – Zed’s Long Beach.wav” WAVE
INDEX 01 00:00:00
TRACK 06 AUDIO
TITLE “All You Need/Birthstone/Ebin/I’ll Be the One – Salt Lake”
INDEX 00 04:02:22
FILE “06 Sublime – All You Need/Birthstone/Ebin/I’ll Be the One – Salt Lake.wav” WAVE
INDEX 01 00:00:00


Leave a Reply

Your email address will not be published. Required fields are marked *

Enter the text from the image below
 

This site uses Akismet to reduce spam. Learn how your comment data is processed.