Sublime – The Best Of Sublime (Remastered)




No Cover available

Artist: Sublime
Year: 2002
Genre: Ska
Notes: Discogs
Add. Notes: Remastered
Watch Songs on: YouTube
Cover incl.: Yes
Encoder: FLAC
Bitrate: ~1000 kBit/s (44.1 kHz/16 Bit/s)
Log & Cue incl.: Yes
Size: 314,6 MB
Password: “slam” (without ” “)


All Downloads/Hosters are compatible

Download 1
KatFile.com
Turbobit.net
Rapidgator.net
FileFactory.com
Download 2
KatFile.com
Turbobit.net
Rapidgator.net
FileFactory.com

Tracklist:

1 - Date Rape - 3:40
2 - Smoke Two Joints - 2:56
3 - Badfish - 3:07
4 - Greatest-Hits - 2:55
5 - Saw Red - 1:59
6 - What I Got - 2:51
7 - Santeria - 3:04
8 - Wrong Way - 2:16
9 - Doin' Time - 4:13
10 - April 29, 1992 (Miami) - 3:53

EAC-Log, CUE-Sheed & NFO:

Click to open spoiler
Exact Audio Copy V0.99 prebeta 4 from 23. January 2008

EAC extraction logfile from 3. December 2008, 7:59

Sublime / The Best of Sublime

Used drive : PIONEER DVD-RW DVR-115D Adapter: 1 ID: 0

Read mode : Secure
Utilize accurate stream : Yes
Defeat audio cache : Yes
Make use of C2 pointers : No

Read offset correction : 48
Overread into Lead-In and Lead-Out : No
Fill up missing offset samples with silence : Yes
Delete leading and trailing silent blocks : No
Null samples used in CRC calculations : Yes
Used interface : Installed external ASPI interface
Gap handling : Appended to previous track

Used output format : User Defined Encoder
Selected bitrate : 320 kBit/s
Quality : High
Add ID3 tag : No
Command line compressor : C:\Program Files (x86)\Exact Audio Copy\Flac\flac.exe
Additional command line options : -V -8 -T “artist=%a” -T “title=%t” -T “album=%g” -T “date=%y” -T “tracknumber=%n” -T “genre=%m” %s

TOC of the extracted CD

Track | Start | Length | Start sector | End sector
———————————————————
1 | 0:00.00 | 3:40.08 | 0 | 16507
2 | 3:40.08 | 2:56.55 | 16508 | 29762
3 | 6:36.63 | 3:07.72 | 29763 | 43859
4 | 9:44.60 | 2:55.15 | 43860 | 56999
5 | 12:40.00 | 1:59.03 | 57000 | 65927
6 | 14:39.03 | 2:51.44 | 65928 | 78796
7 | 17:30.47 | 3:04.08 | 78797 | 92604
8 | 20:34.55 | 2:16.67 | 92605 | 102871
9 | 22:51.47 | 4:13.03 | 102872 | 121849
10 | 27:04.50 | 3:53.50 | 121850 | 139374

Track 1

Filename E:\FLAC\Sublime – 20th Century Masters – The Millennium Collection The Best Of Sublime\01 – Date Rape.wav

Pre-gap length 0:00:02.00

Peak level 99.8 %
Track quality 100.0 %
Test CRC A845D1AB
Copy CRC A845D1AB
Accurately ripped (confidence 5) [7169B23A]
Copy OK

Track 2

Filename E:\FLAC\Sublime – 20th Century Masters – The Millennium Collection The Best Of Sublime\02 – Smoke Two Joints.wav

Peak level 99.8 %
Track quality 100.0 %
Test CRC 8D992CDC
Copy CRC 8D992CDC
Accurately ripped (confidence 5) [094FF18D]
Copy OK

Track 3

Filename E:\FLAC\Sublime – 20th Century Masters – The Millennium Collection The Best Of Sublime\03 – Badfish.wav

Peak level 99.8 %
Track quality 99.9 %
Test CRC 397A4D60
Copy CRC 397A4D60
Accurately ripped (confidence 5) [EA4F555C]
Copy OK

Track 4

Filename E:\FLAC\Sublime – 20th Century Masters – The Millennium Collection The Best Of Sublime\04 – Greatest-hits.wav

Peak level 99.8 %
Track quality 100.0 %
Test CRC F4630887
Copy CRC F4630887
Accurately ripped (confidence 5) [B7319626]
Copy OK

Track 5

Filename E:\FLAC\Sublime – 20th Century Masters – The Millennium Collection The Best Of Sublime\05 – Saw Red.wav

Pre-gap length 0:00:01.20

Peak level 99.8 %
Track quality 100.0 %
Test CRC 874D70D1
Copy CRC 874D70D1
Accurately ripped (confidence 5) [ABA2E3BC]
Copy OK

Track 6

Filename E:\FLAC\Sublime – 20th Century Masters – The Millennium Collection The Best Of Sublime\06 – What I Got.wav

Peak level 99.8 %
Track quality 100.0 %
Test CRC B7AD19DF
Copy CRC B7AD19DF
Accurately ripped (confidence 5) [A137ECF2]
Copy OK

Track 7

Filename E:\FLAC\Sublime – 20th Century Masters – The Millennium Collection The Best Of Sublime\07 – Santeria.wav

Peak level 99.8 %
Track quality 100.0 %
Test CRC 26EEAFE1
Copy CRC 26EEAFE1
Accurately ripped (confidence 5) [A1AA1859]
Copy OK

Track 8

Filename E:\FLAC\Sublime – 20th Century Masters – The Millennium Collection The Best Of Sublime\08 – Wrong Way.wav

Peak level 99.8 %
Track quality 100.0 %
Test CRC 2500559A
Copy CRC 2500559A
Accurately ripped (confidence 5) [432D001C]
Copy OK

Track 9

Filename E:\FLAC\Sublime – 20th Century Masters – The Millennium Collection The Best Of Sublime\09 – Doin’ Time.wav

Peak level 99.8 %
Track quality 99.9 %
Test CRC 40BFD5B8
Copy CRC 40BFD5B8
Accurately ripped (confidence 5) [0FB240D3]
Copy OK

Track 10

Filename E:\FLAC\Sublime – 20th Century Masters – The Millennium Collection The Best Of Sublime\10 – April 29, 1992 (Miami).wav

Peak level 99.8 %
Track quality 100.0 %
Test CRC 61BA7543
Copy CRC 61BA7543
Accurately ripped (confidence 5) [B2BBC16B]
Copy OK

All tracks accurately ripped

No errors occurred

End of status report

REM GENRE Rock
REM DATE 2002
REM DISCID 8007420A
REM COMMENT “ExactAudioCopy v0.99pb4”
PERFORMER “Sublime”
TITLE “The Best of Sublime”
FILE “01 – Date Rape.wav” WAVE
TRACK 01 AUDIO
TITLE “Date Rape”
PERFORMER “Sublime”
INDEX 01 00:00:00
FILE “02 – Smoke Two Joints.wav” WAVE
TRACK 02 AUDIO
TITLE “Smoke Two Joints”
PERFORMER “Sublime”
INDEX 01 00:00:00
FILE “03 – Badfish.wav” WAVE
TRACK 03 AUDIO
TITLE “Badfish”
PERFORMER “Sublime”
INDEX 01 00:00:00
FILE “04 – Greatest-hits.wav” WAVE
TRACK 04 AUDIO
TITLE “Greatest-hits”
PERFORMER “Sublime”
INDEX 01 00:00:00
TRACK 05 AUDIO
TITLE “Saw Red”
PERFORMER “Sublime”
INDEX 00 02:54:00
FILE “05 – Saw Red.wav” WAVE
INDEX 01 00:00:00
FILE “06 – What I Got.wav” WAVE
TRACK 06 AUDIO
TITLE “What I Got”
PERFORMER “Sublime”
INDEX 01 00:00:00
FILE “07 – Santeria.wav” WAVE
TRACK 07 AUDIO
TITLE “Santeria”
PERFORMER “Sublime”
INDEX 01 00:00:00
FILE “08 – Wrong Way.wav” WAVE
TRACK 08 AUDIO
TITLE “Wrong Way”
PERFORMER “Sublime”
INDEX 01 00:00:00
FILE “09 – Doin’ Time.wav” WAVE
TRACK 09 AUDIO
TITLE “Doin’ Time”
PERFORMER “Sublime”
INDEX 01 00:00:00
FILE “10 – April 29, 1992 (Miami).wav” WAVE
TRACK 10 AUDIO
TITLE “April 29, 1992 (Miami)”
PERFORMER “Sublime”
INDEX 01 00:00:00


Leave a Reply

Your email address will not be published. Required fields are marked *

This site uses Akismet to reduce spam. Learn how your comment data is processed.