Sublime – Sublime




No Cover available

Artist: Sublime
Year: 1995
Genre: Ska
Notes: Discogs
Add. Notes:
Watch Songs on: YouTube
Cover incl.: Yes
Encoder: FLAC
Bitrate: ~800 kBit/s (44.1 kHz/16 Bit/s)
Log & Cue incl.: Yes
Size: 304,7 MB
Password: “slam” (without ” “)


All Downloads/Hosters are compatible

Download 1
KatFile.com
Turbobit.net
Rapidgator.net
FileFactory.com
Download 2
KatFile.com
Turbobit.net
Rapidgator.net
FileFactory.com

Tracklist:

1 - Waiting For My Ruca - 2:20
2 - 40 Oz. To Freedom - 3:04
3 - Don't Push - 4:20
4 - Let's Go Get Stoned - 3:33
5 - New Thrash - 1:28
6 - Pool Shark (Acoustic & Electric) - 2:09
7 - Secret Tweeter Pad - 2:58
8 - Greatest Hits - 2:55
9 - Live At E's - 3:10
10 - D.J.'s - 2:59
11 - Work That We Do - 2:32
12 - Saw Red - 1:58
13 - Ebin - 3:36
14 - Date Rape - 3:38
15 - Right Back - 2:50
16 - Mary - 1:35
17 - Raleigh Soliloquy Pt. III - 0:46
18 - Badfish - 3:06
19 - All You Need - 2:45

EAC-Log, CUE-Sheed & NFO:

Click to open spoiler
Exact Audio Copy V0.99 prebeta 3 from 28. July 2007

EAC extraction logfile from 13. August 2009, 11:26

Sublime / Sublime

Used drive : SlimtypeDVDRW SSM-8515S Adapter: 1 ID: 0

Read mode : Secure
Utilize accurate stream : Yes
Defeat audio cache : Yes
Make use of C2 pointers : No

Read offset correction : 594
Overread into Lead-In and Lead-Out : No
Fill up missing offset samples with silence : Yes
Delete leading and trailing silent blocks : No
Null samples used in CRC calculations : Yes
Used interface : Native Win32 interface for Win NT & 2000
Gap handling : Appended to previous track

Used output format : User Defined Encoder
Selected bitrate : 320 kBit/s
Quality : High
Add ID3 tag : No
Command line compressor : C:\Program Files\Exact Audio Copy\FLAC\FLAC.EXE
Additional command line options : -V -8 -T “artist=%a” -T “title=%t” -T “album=%g” -T “date=%y” -T “tracknumber=%n” -T “genre=%m” %s

TOC of the extracted CD

Track | Start | Length | Start sector | End sector
———————————————————
1 | 0:00.00 | 2:20.35 | 0 | 10534
2 | 2:20.35 | 3:03.65 | 10535 | 24324
3 | 5:24.25 | 4:19.55 | 24325 | 43804
4 | 9:44.05 | 3:33.47 | 43805 | 59826
5 | 13:17.52 | 1:27.58 | 59827 | 66409
6 | 14:45.35 | 2:08.57 | 66410 | 76066
7 | 16:54.17 | 2:58.05 | 76067 | 89421
8 | 19:52.22 | 2:54.55 | 89422 | 102526
9 | 22:47.02 | 3:09.73 | 102527 | 116774
10 | 25:57.00 | 2:59.17 | 116775 | 130216
11 | 28:56.17 | 2:32.30 | 130217 | 141646
12 | 31:28.47 | 1:57.65 | 141647 | 150486
13 | 33:26.37 | 3:35.45 | 150487 | 166656
14 | 37:02.07 | 3:38.25 | 166657 | 183031
15 | 40:40.32 | 2:49.48 | 183032 | 195754
16 | 43:30.05 | 1:35.10 | 195755 | 202889
17 | 45:05.15 | 0:45.70 | 202890 | 206334
18 | 45:51.10 | 3:06.00 | 206335 | 220284
19 | 48:57.10 | 2:45.35 | 220285 | 232694

Track 1

Filename C:\EACrips\Sublime – Sublime [FLAC]\01 – Waiting For My Ruca.wav

Pre-gap length 0:00:02.00

Peak level 77.3 %
Track quality 99.9 %
Test CRC 17887A4E
Copy CRC 17887A4E
Cannot be verified as accurate (confidence 1) [17DACC0B], AccurateRip returned [9EF98C1F]
Copy OK

Track 2

Filename C:\EACrips\Sublime – Sublime [FLAC]\02 – 40 oz. To Freedom.wav

Pre-gap length 0:00:00.13

Peak level 81.1 %
Track quality 100.0 %
Test CRC B32AE21A
Copy CRC B32AE21A
Cannot be verified as accurate (confidence 1) [3DEC87D9], AccurateRip returned [F844F6C5]
Copy OK

Track 3

Filename C:\EACrips\Sublime – Sublime [FLAC]\03 – Don’t Push.wav

Pre-gap length 0:00:01.10

Peak level 85.7 %
Track quality 100.0 %
Test CRC F57F92C1
Copy CRC F57F92C1
Cannot be verified as accurate (confidence 1) [CD1A0134], AccurateRip returned [CAA983B8]
Copy OK

Track 4

Filename C:\EACrips\Sublime – Sublime [FLAC]\04 – Let’s Go Get Stoned.wav

Pre-gap length 0:00:00.66

Peak level 89.0 %
Track quality 100.0 %
Test CRC 652879FC
Copy CRC 652879FC
Cannot be verified as accurate (confidence 1) [21B8C7C8], AccurateRip returned [CAA5ED94]
Copy OK

Track 5

Filename C:\EACrips\Sublime – Sublime [FLAC]\05 – New Thrash.wav

Pre-gap length 0:00:00.49

Peak level 88.8 %
Track quality 100.0 %
Test CRC EFA393E3
Copy CRC EFA393E3
Cannot be verified as accurate (confidence 1) [11BBBDCA], AccurateRip returned [B0A447FA]
Copy OK

Track 6

Filename C:\EACrips\Sublime – Sublime [FLAC]\06 – Pool Shark (Acoustic&Electric).wav

Pre-gap length 0:00:01.00

Peak level 100.0 %
Track quality 100.0 %
Test CRC 20A88F8A
Copy CRC 20A88F8A
Cannot be verified as accurate (confidence 1) [2C6989AC], AccurateRip returned [23525ED4]
Copy OK

Track 7

Filename C:\EACrips\Sublime – Sublime [FLAC]\07 – Secret Tweeker Pad.wav

Peak level 100.0 %
Track quality 100.0 %
Test CRC 04E1C0E2
Copy CRC 04E1C0E2
Cannot be verified as accurate (confidence 1) [59AC8D44], AccurateRip returned [4B12F658]
Copy OK

Track 8

Filename C:\EACrips\Sublime – Sublime [FLAC]\08 – Greatest Hits.wav

Pre-gap length 0:00:00.69

Peak level 100.0 %
Track quality 100.0 %
Test CRC 737F9E29
Copy CRC 737F9E29
Cannot be verified as accurate (confidence 1) [B1C3B32E], AccurateRip returned [95277B1E]
Copy OK

Track 9

Filename C:\EACrips\Sublime – Sublime [FLAC]\09 – Live At E’s.wav

Pre-gap length 0:00:00.69

Peak level 86.0 %
Track quality 100.0 %
Test CRC E6FBCAA0
Copy CRC E6FBCAA0
Cannot be verified as accurate (confidence 1) [2AC4821A], AccurateRip returned [9EFD9AF6]
Copy OK

Track 10

Filename C:\EACrips\Sublime – Sublime [FLAC]\10 – D.J.’s.wav

Pre-gap length 0:00:00.73

Peak level 91.9 %
Track quality 100.0 %
Test CRC 403EBBF1
Copy CRC 403EBBF1
Cannot be verified as accurate (confidence 1) [90FE6A3F], AccurateRip returned [2C08A11B]
Copy OK

Track 11

Filename C:\EACrips\Sublime – Sublime [FLAC]\11 – Work That We Do.wav

Pre-gap length 0:00:00.02

Peak level 100.0 %
Track quality 99.9 %
Test CRC BA4AEBD0
Copy CRC BA4AEBD0
Cannot be verified as accurate (confidence 1) [642EE0CC], AccurateRip returned [BC5A3620]
Copy OK

Track 12

Filename C:\EACrips\Sublime – Sublime [FLAC]\12 – Saw Red.wav

Pre-gap length 0:00:00.93

Peak level 100.0 %
Track quality 99.9 %
Test CRC 8D65BC81
Copy CRC 8D65BC81
Cannot be verified as accurate (confidence 1) [514C900A], AccurateRip returned [7D558E52]
Copy OK

Track 13

Filename C:\EACrips\Sublime – Sublime [FLAC]\13 – Ebin.wav

Peak level 75.3 %
Track quality 100.0 %
Test CRC 566A74EB
Copy CRC 566A74EB
Cannot be verified as accurate (confidence 1) [14A994B1], AccurateRip returned [CA36CA4D]
Copy OK

Track 14

Filename C:\EACrips\Sublime – Sublime [FLAC]\14 – Date Rape.wav

Pre-gap length 0:00:02.93

Peak level 86.7 %
Track quality 100.0 %
Test CRC 8AE5DBEE
Copy CRC 8AE5DBEE
Cannot be verified as accurate (confidence 1) [42EE0985], AccurateRip returned [AD8F8CA9]
Copy OK

Track 15

Filename C:\EACrips\Sublime – Sublime [FLAC]\15 – Right Back.wav

Pre-gap length 0:00:01.29

Peak level 82.4 %
Track quality 100.0 %
Test CRC 0DC693AF
Copy CRC 0DC693AF
Cannot be verified as accurate (confidence 1) [BFAF9A82], AccurateRip returned [B825397E]
Copy OK

Track 16

Filename C:\EACrips\Sublime – Sublime [FLAC]\16 – Mary.wav

Pre-gap length 0:00:00.17

Peak level 73.4 %
Track quality 100.0 %
Test CRC F5D1D551
Copy CRC F5D1D551
Cannot be verified as accurate (confidence 1) [54924E5B], AccurateRip returned [32C5FC2F]
Copy OK

Track 17

Filename C:\EACrips\Sublime – Sublime [FLAC]\17 – Raleigh Soliloquy Pt III.wav

Pre-gap length 0:00:00.97

Peak level 53.7 %
Track quality 100.0 %
Test CRC 33F7F87E
Copy CRC 33F7F87E
Cannot be verified as accurate (confidence 1) [51E6966A], AccurateRip returned [5D6AB1C2]
Copy OK

Track 18

Filename C:\EACrips\Sublime – Sublime [FLAC]\18 – Badfish.wav

Pre-gap length 0:00:00.06

Peak level 89.4 %
Track quality 100.0 %
Test CRC A8B08456
Copy CRC A8B08456
Cannot be verified as accurate (confidence 1) [20C413D8], AccurateRip returned [6784DF80]
Copy OK

Track 19

Filename C:\EACrips\Sublime – Sublime [FLAC]\19 – All You Need.wav

Pre-gap length 0:00:00.93

Peak level 91.9 %
Track quality 100.0 %
Test CRC 50432DD3
Copy CRC 50432DD3
Cannot be verified as accurate (confidence 1) [A1222BCC], AccurateRip returned [F2DB7F04]
Copy OK

No tracks could be verified as accurate
You may have a different pressing from the one(s) in the database

No errors occurred

End of status report

REM GENRE Ska
REM DATE 1995
REM DISCID 1E0C1E13
REM COMMENT “ExactAudioCopy v0.99pb3”
FILE “Sublime – Sublime [FLAC]\01 – Waiting For My Ruca.wav” WAVE
TRACK 01 AUDIO
INDEX 01 00:00:00
TRACK 02 AUDIO
INDEX 00 02:20:25
FILE “Sublime – Sublime [FLAC]\02 – 40 oz. To Freedom.wav” WAVE
INDEX 01 00:00:00
TRACK 03 AUDIO
INDEX 00 03:02:57
FILE “Sublime – Sublime [FLAC]\03 – Don’t Push.wav” WAVE
INDEX 01 00:00:00
TRACK 04 AUDIO
INDEX 00 04:19:05
FILE “Sublime – Sublime [FLAC]\04 – Let’s Go Get Stoned.wav” WAVE
INDEX 01 00:00:00
TRACK 05 AUDIO
INDEX 00 03:33:10
FILE “Sublime – Sublime [FLAC]\05 – New Thrash.wav” WAVE
INDEX 01 00:00:00
TRACK 06 AUDIO
INDEX 00 01:26:58
FILE “Sublime – Sublime [FLAC]\06 – Pool Shark (Acoustic&Electric).wav” WAVE
INDEX 01 00:00:00
FILE “Sublime – Sublime [FLAC]\07 – Secret Tweeker Pad.wav” WAVE
TRACK 07 AUDIO
INDEX 01 00:00:00
TRACK 08 AUDIO
INDEX 00 02:57:28
FILE “Sublime – Sublime [FLAC]\08 – Greatest Hits.wav” WAVE
INDEX 01 00:00:00
TRACK 09 AUDIO
INDEX 00 02:54:03
FILE “Sublime – Sublime [FLAC]\09 – Live At E’s.wav” WAVE
INDEX 01 00:00:00
TRACK 10 AUDIO
INDEX 00 03:09:18
FILE “Sublime – Sublime [FLAC]\10 – D.J.’s.wav” WAVE
INDEX 01 00:00:00
TRACK 11 AUDIO
INDEX 00 02:59:15
FILE “Sublime – Sublime [FLAC]\11 – Work That We Do.wav” WAVE
INDEX 01 00:00:00
TRACK 12 AUDIO
INDEX 00 02:31:35
FILE “Sublime – Sublime [FLAC]\12 – Saw Red.wav” WAVE
INDEX 01 00:00:00
FILE “Sublime – Sublime [FLAC]\13 – Ebin.wav” WAVE
TRACK 13 AUDIO
INDEX 01 00:00:00
TRACK 14 AUDIO
INDEX 00 03:32:50
FILE “Sublime – Sublime [FLAC]\14 – Date Rape.wav” WAVE
INDEX 01 00:00:00
TRACK 15 AUDIO
INDEX 00 03:37:03
FILE “Sublime – Sublime [FLAC]\15 – Right Back.wav” WAVE
INDEX 01 00:00:00
TRACK 16 AUDIO
INDEX 00 02:49:35
FILE “Sublime – Sublime [FLAC]\16 – Mary.wav” WAVE
INDEX 01 00:00:00
TRACK 17 AUDIO
INDEX 00 01:34:12
FILE “Sublime – Sublime [FLAC]\17 – Raleigh Soliloquy Pt III.wav” WAVE
INDEX 01 00:00:00
TRACK 18 AUDIO
INDEX 00 00:45:65
FILE “Sublime – Sublime [FLAC]\18 – Badfish.wav” WAVE
INDEX 01 00:00:00
TRACK 19 AUDIO
INDEX 00 03:05:05
FILE “Sublime – Sublime [FLAC]\19 – All You Need.wav” WAVE
INDEX 01 00:00:00


Leave a Reply

Your email address will not be published. Required fields are marked *

Enter the text from the image below
 

This site uses Akismet to reduce spam. Learn how your comment data is processed.