Sublime – Sublime (Original Release)




No Cover available

Artist: Sublime
Year: 1996
Genre: Ska
Notes: Discogs
Add. Notes:
Watch Songs on: YouTube
Cover incl.: Yes
Encoder: FLAC
Bitrate: ~1000 kBit/s (44.1 kHz/16 Bit/s)
Log & Cue incl.: Yes
Size: 410 MB
Password: “slam” (without ” “)


All Downloads/Hosters are compatible

Download 1
KatFile.com
Turbobit.net
Rapidgator.net
FileFactory.com
Download 2
KatFile.com
Turbobit.net
Rapidgator.net
FileFactory.com

Tracklist:

1 - Garden Grove - 4:21
2 - What I Got - 2:51
3 - Wrong Way - 2:16
4 - Same In The End - 2:36
5 - April 29, 1992 (Miami) - 3:53
6 - Santeria - 3:03
7 - Seed - 2:10
8 - Jailhouse - 4:53
9 - Pawn Shop - 6:06
10 - Paddle Out - 1:15
11 - The Ballad Of Johnny Butt - 2:12
12 - Burritos - 3:55
13 - Under My Voodoo - 3:26
14 - Get Ready - 4:51
15 - Caress Me Down - 3:32
16 - What I Got (Reprise) - 3:02
17 - Doin' Time - 4:13

EAC-Log, CUE-Sheed & NFO:

Click to open spoiler
EAC extraction logfile from 6. August 2006, 22:21 for CD
Sublime / Sublime

Used drive : LITE-ON DVDRW SHM-165H6S Adapter: 1 ID: 0
Read mode : Secure with NO C2, accurate stream, disable cache
Read offset correction : 6
Overread into Lead-In and Lead-Out : No

Used output format : C:\Program Files\FLAC\flac.exe (User Defined Encoder)
192 kBit/s
Additional command line options : -V -8 -T “artist=%a” -T “title=%t” -T “album=%g” -T “date=%y” -T “tracknumber=%n” -T “genre=%m” %s

Other options :
Fill up missing offset samples with silence : Yes
Delete leading and trailing silent blocks : No
Installed external ASPI interface

Track 1
Filename F:\Torrents\Sublime – Sublime\01 – Sublime – Garden Grove.wav

Pre-gap length 0:00:02.00

Peak level 100.0 %
Track quality 100.0 %
Test CRC 0047A657
Copy CRC 0047A657
Copy OK

Track 2
Filename F:\Torrents\Sublime – Sublime\02 – Sublime – What I Got.wav

Peak level 100.0 %
Track quality 100.0 %
Test CRC 7FE1C746
Copy CRC 7FE1C746
Copy OK

Track 3
Filename F:\Torrents\Sublime – Sublime\03 – Sublime – Wrong Way.wav

Peak level 100.0 %
Track quality 100.0 %
Test CRC 370013EB
Copy CRC 370013EB
Copy OK

Track 4
Filename F:\Torrents\Sublime – Sublime\04 – Sublime – Same In The End.wav

Peak level 100.0 %
Track quality 100.0 %
Test CRC 9D86188B
Copy CRC 9D86188B
Copy OK

Track 5
Filename F:\Torrents\Sublime – Sublime\05 – Sublime – April 29, 1992 (Miami).wav

Peak level 100.0 %
Track quality 100.0 %
Test CRC 3796C186
Copy CRC 3796C186
Copy OK

Track 6
Filename F:\Torrents\Sublime – Sublime\06 – Sublime – Santeria.wav

Peak level 100.0 %
Track quality 100.0 %
Test CRC 21AAEAA8
Copy CRC 21AAEAA8
Copy OK

Track 7
Filename F:\Torrents\Sublime – Sublime\07 – Sublime – Seed.wav

Peak level 100.0 %
Track quality 100.0 %
Test CRC 34A8FBF0
Copy CRC 34A8FBF0
Copy OK

Track 8
Filename F:\Torrents\Sublime – Sublime\08 – Sublime – Jailhouse.wav

Peak level 100.0 %
Track quality 100.0 %
Test CRC B893842D
Copy CRC B893842D
Copy OK

Track 9
Filename F:\Torrents\Sublime – Sublime\09 – Sublime – Pawn Shop.wav

Peak level 100.0 %
Track quality 100.0 %
Test CRC 86B443CA
Copy CRC 86B443CA
Copy OK

Track 10
Filename F:\Torrents\Sublime – Sublime\10 – Sublime – Paddle Out.wav

Peak level 100.0 %
Track quality 99.8 %
Test CRC CF91DFF2
Copy CRC CF91DFF2
Copy OK

Track 11
Filename F:\Torrents\Sublime – Sublime\11 – Sublime – The Ballad of Johnny Butt.wav

Peak level 100.0 %
Track quality 100.0 %
Test CRC 84D5751C
Copy CRC 84D5751C
Copy OK

Track 12
Filename F:\Torrents\Sublime – Sublime\12 – Sublime – Burritos.wav

Peak level 100.0 %
Track quality 99.9 %
Test CRC 4C7D3DD2
Copy CRC 4C7D3DD2
Copy OK

Track 13
Filename F:\Torrents\Sublime – Sublime\13 – Sublime – Under My Voodoo.wav

Peak level 100.0 %
Track quality 99.9 %
Test CRC 69187BAC
Copy CRC 69187BAC
Copy OK

Track 14
Filename F:\Torrents\Sublime – Sublime\14 – Sublime – Get Ready.wav

Peak level 100.0 %
Track quality 100.0 %
Test CRC 86190C70
Copy CRC 86190C70
Copy OK

Track 15
Filename F:\Torrents\Sublime – Sublime\15 – Sublime – Caress Me Down.wav

Peak level 100.0 %
Track quality 100.0 %
Test CRC C0730C0C
Copy CRC C0730C0C
Copy OK

Track 16
Filename F:\Torrents\Sublime – Sublime\16 – Sublime – What I Got (reprise).wav

Peak level 100.0 %
Track quality 100.0 %
Test CRC AC93D37B
Copy CRC AC93D37B
Copy OK

Track 17
Filename F:\Torrents\Sublime – Sublime\17 – Sublime – Doin’ Time.wav

Peak level 100.0 %
Track quality 99.9 %
Test CRC 7C343A6B
Copy CRC 7C343A6B
Copy OK

No errors occured

End of status report

REM GENRE “Alt. Rock”
REM DATE 1996
REM DISCID E30DBC11
REM COMMENT “ExactAudioCopy v0.95b4”
PERFORMER “Sublime”
TITLE “Sublime”
FILE “01 – Sublime – Garden Grove.wav” WAVE
TRACK 01 AUDIO
TITLE “Garden Grove”
PERFORMER “Sublime”
INDEX 01 00:00:00
FILE “02 – Sublime – What I Got.wav” WAVE
TRACK 02 AUDIO
TITLE “What I Got”
PERFORMER “Sublime”
INDEX 01 00:00:00
FILE “03 – Sublime – Wrong Way.wav” WAVE
TRACK 03 AUDIO
TITLE “Wrong Way”
PERFORMER “Sublime”
INDEX 01 00:00:00
FILE “04 – Sublime – Same In The End.wav” WAVE
TRACK 04 AUDIO
TITLE “Same In The End”
PERFORMER “Sublime”
INDEX 01 00:00:00
FILE “05 – Sublime – April 29, 1992 (Miami).wav” WAVE
TRACK 05 AUDIO
TITLE “April 29, 1992 (Miami)”
PERFORMER “Sublime”
INDEX 01 00:00:00
FILE “06 – Sublime – Santeria.wav” WAVE
TRACK 06 AUDIO
TITLE “Santeria”
PERFORMER “Sublime”
INDEX 01 00:00:00
FILE “07 – Sublime – Seed.wav” WAVE
TRACK 07 AUDIO
TITLE “Seed”
PERFORMER “Sublime”
INDEX 01 00:00:00
FILE “08 – Sublime – Jailhouse.wav” WAVE
TRACK 08 AUDIO
TITLE “Jailhouse”
PERFORMER “Sublime”
INDEX 01 00:00:00
FILE “09 – Sublime – Pawn Shop.wav” WAVE
TRACK 09 AUDIO
TITLE “Pawn Shop”
PERFORMER “Sublime”
INDEX 01 00:00:00
FILE “10 – Sublime – Paddle Out.wav” WAVE
TRACK 10 AUDIO
TITLE “Paddle Out”
PERFORMER “Sublime”
INDEX 01 00:00:00
FILE “11 – Sublime – The Ballad of Johnny Butt.wav” WAVE
TRACK 11 AUDIO
TITLE “The Ballad of Johnny Butt”
PERFORMER “Sublime”
INDEX 01 00:00:00
FILE “12 – Sublime – Burritos.wav” WAVE
TRACK 12 AUDIO
TITLE “Burritos”
PERFORMER “Sublime”
INDEX 01 00:00:00
FILE “13 – Sublime – Under My Voodoo.wav” WAVE
TRACK 13 AUDIO
TITLE “Under My Voodoo”
PERFORMER “Sublime”
INDEX 01 00:00:00
FILE “14 – Sublime – Get Ready.wav” WAVE
TRACK 14 AUDIO
TITLE “Get Ready”
PERFORMER “Sublime”
INDEX 01 00:00:00
FILE “15 – Sublime – Caress Me Down.wav” WAVE
TRACK 15 AUDIO
TITLE “Caress Me Down”
PERFORMER “Sublime”
INDEX 01 00:00:00
FILE “16 – Sublime – What I Got (reprise).wav” WAVE
TRACK 16 AUDIO
TITLE “What I Got (reprise)”
PERFORMER “Sublime”
INDEX 01 00:00:00
FILE “17 – Sublime – Doin’ Time.wav” WAVE
TRACK 17 AUDIO
TITLE “Doin’ Time”
PERFORMER “Sublime”
INDEX 01 00:00:00


Leave a Reply

Your email address will not be published. Required fields are marked *

This site uses Akismet to reduce spam. Learn how your comment data is processed.