Sublime – Sublime Acoustic (Bradley Nowell & Friends)




No Cover available

Artist: Sublime
Year: 1998
Genre: Ska
Notes: Discogs
Add. Notes:
Watch Songs on: YouTube
Cover incl.: Yes
Encoder: FLAC
Bitrate: ~700 kBit/s (44.1 kHz/16 Bit/s)
Log & Cue incl.: Yes
Size: 190,1 MB
Password: “slam” (without ” “)


All Downloads/Hosters are compatible

Download 1
KatFile.com
Turbobit.net
Rapidgator.net
FileFactory.com
Download 2
KatFile.com
Turbobit.net
Rapidgator.net
FileFactory.com

Tracklist:

1  - Wrong Way  - 0:49
2  - Saw Red  - 2:47
3  - Foolish Fool  - 2:17
4  - Don't Push  - 2:58
5  - Mary/Big Salty Tears  - 4:57
6  - Boss D.J.  - 3:04
7  - Garden Grove (Live)  - 1:57
8  - Rivers Of Babylon  - 2:38
9  - Little District  - 1:57
10  - KRS-One (Live)  - 3:38
11  - Marley Medley - Guava Jelly/This Train  - 3:00
12  - What Happened/Eye Of Fatima  - 1:57
13  - Freeway Time In L.A. County Jail  - 4:23
14  - Pool Shark  - 1:26
15  - It's Who You Know  - 0:44

EAC-Log, CUE-Sheed & NFO:

Click to open spoiler
EAC extraction logfile from 12. May 2009, 23:38 for CD
Sublime / Sublime Acoustic: Bradley Nowell & Friends

Used drive : TSSTcorpCD/DVDW TS-L632D Adapter: 0 ID: 1
Read mode : Secure with NO C2, accurate stream, disable cache
Read offset correction : 6
Overread into Lead-In and Lead-Out : No

Used output format : C:\Program Files\FLAC\flac.exe (User Defined Encoder)
128 kBit/s
Additional command line options : -V -8 -T “artist=%a” -T “title=%t” -T “album=%g” -T “date=%y” -T “tracknumber=%n” -T “genre=%m” %sber=%n -T genre=%m %s

Other options :
Fill up missing offset samples with silence : Yes
Delete leading and trailing silent blocks : No
Installed external ASPI interface

Track 1
Filename C:\Documents and Settings\Adam\Desktop\Rips\Sublime – Acoustic Bradley Nowell & Friends\01 – Sublime – Wrong Way (acoustic).wav

Pre-gap length 0:00:02.00

Peak level 97.7 %
Track quality 100.0 %
Test CRC BFB99B7C
Copy CRC BFB99B7C
Copy OK

Track 2
Filename C:\Documents and Settings\Adam\Desktop\Rips\Sublime – Acoustic Bradley Nowell & Friends\02 – Sublime – Saw Red (acoustic).wav

Pre-gap length 0:00:01.32

Peak level 97.7 %
Track quality 100.0 %
Test CRC 1D6E3367
Copy CRC 1D6E3367
Copy OK

Track 3
Filename C:\Documents and Settings\Adam\Desktop\Rips\Sublime – Acoustic Bradley Nowell & Friends\03 – Sublime – Foolish Fool (acoustic).wav

Pre-gap length 0:00:01.57

Peak level 73.3 %
Track quality 100.0 %
Test CRC FA9B0DD0
Copy CRC FA9B0DD0
Copy OK

Track 4
Filename C:\Documents and Settings\Adam\Desktop\Rips\Sublime – Acoustic Bradley Nowell & Friends\04 – Sublime – Don’t Push (acoustic).wav

Pre-gap length 0:00:01.73

Peak level 97.7 %
Track quality 99.9 %
Test CRC 883C4F0F
Copy CRC 883C4F0F
Copy OK

Track 5
Filename C:\Documents and Settings\Adam\Desktop\Rips\Sublime – Acoustic Bradley Nowell & Friends\05 – Sublime – Mary,Big Salty Tears (acoustic).wav

Pre-gap length 0:00:01.44

Peak level 97.7 %
Track quality 100.0 %
Test CRC C00AADDE
Copy CRC C00AADDE
Copy OK

Track 6
Filename C:\Documents and Settings\Adam\Desktop\Rips\Sublime – Acoustic Bradley Nowell & Friends\06 – Sublime – Boss D.J. (acoustic).wav

Pre-gap length 0:00:01.44

Peak level 97.7 %
Track quality 100.0 %
Test CRC 3B4FCFEF
Copy CRC 3B4FCFEF
Copy OK

Track 7
Filename C:\Documents and Settings\Adam\Desktop\Rips\Sublime – Acoustic Bradley Nowell & Friends\07 – Sublime – Garden Grove [Live] (acoustic).wav

Pre-gap length 0:00:02.73

Peak level 97.7 %
Track quality 100.0 %
Test CRC FDFFA887
Copy CRC FDFFA887
Copy OK

Track 8
Filename C:\Documents and Settings\Adam\Desktop\Rips\Sublime – Acoustic Bradley Nowell & Friends\08 – Sublime – Rivers Of Babylon (acoustic).wav

Pre-gap length 0:00:02.30

Peak level 97.7 %
Track quality 100.0 %
Test CRC EB401509
Copy CRC EB401509
Copy OK

Track 9
Filename C:\Documents and Settings\Adam\Desktop\Rips\Sublime – Acoustic Bradley Nowell & Friends\09 – Sublime – Little District (acoustic).wav

Pre-gap length 0:00:01.46

Peak level 97.7 %
Track quality 100.0 %
Test CRC 97F0439E
Copy CRC 97F0439E
Copy OK

Track 10
Filename C:\Documents and Settings\Adam\Desktop\Rips\Sublime – Acoustic Bradley Nowell & Friends\10 – Sublime – KRS-One [Live] (acoustic).wav

Pre-gap length 0:00:02.26

Peak level 97.7 %
Track quality 100.0 %
Test CRC D4D9EBD4
Copy CRC D4D9EBD4
Copy OK

Track 11
Filename C:\Documents and Settings\Adam\Desktop\Rips\Sublime – Acoustic Bradley Nowell & Friends\11 – Sublime – Marley Medley (Guava Jelly,This Train) (acoustic).wav

Pre-gap length 0:00:01.90

Peak level 97.7 %
Track quality 100.0 %
Test CRC 776A3FFD
Copy CRC 776A3FFD
Copy OK

Track 12
Filename C:\Documents and Settings\Adam\Desktop\Rips\Sublime – Acoustic Bradley Nowell & Friends\12 – Sublime – What Happened,Eye Of Fatima (acoustic).wav

Pre-gap length 0:00:02.00

Peak level 82.8 %
Track quality 100.0 %
Test CRC 2A22B720
Copy CRC 2A22B720
Copy OK

Track 13
Filename C:\Documents and Settings\Adam\Desktop\Rips\Sublime – Acoustic Bradley Nowell & Friends\13 – Sublime – Free Way Time In L.A. County Jail (acoustic).wav

Pre-gap length 0:00:01.73

Peak level 97.7 %
Track quality 100.0 %
Test CRC 90624C07
Copy CRC 90624C07
Copy OK

Track 14
Filename C:\Documents and Settings\Adam\Desktop\Rips\Sublime – Acoustic Bradley Nowell & Friends\14 – Sublime – Pool Shark (acoustic).wav

Pre-gap length 0:00:01.69

Peak level 82.4 %
Track quality 100.0 %
Test CRC 7964021F
Copy CRC 7964021F
Copy OK

Track 15
Filename C:\Documents and Settings\Adam\Desktop\Rips\Sublime – Acoustic Bradley Nowell & Friends\15 – Sublime – It’s Who You Know (acoustic).wav

Pre-gap length 0:00:01.33

Peak level 83.3 %
Track quality 99.7 %
Test CRC EA662C3F
Copy CRC EA662C3F
Copy OK

No errors occured

End of status report

REM GENRE “Punk Rock”
REM DATE 1998
REM DISCID B6090F0F
REM COMMENT “ExactAudioCopy v0.95b4”
PERFORMER “Sublime”
TITLE “Sublime Acoustic: Bradley Nowell & Friends”
FILE “01 – Sublime – Wrong Way (acoustic).wav” WAVE
TRACK 01 AUDIO
TITLE “Wrong Way (acoustic)”
PERFORMER “Sublime”
INDEX 01 00:00:00
TRACK 02 AUDIO
TITLE “Saw Red (acoustic)”
PERFORMER “Sublime”
INDEX 00 00:48:40
FILE “02 – Sublime – Saw Red (acoustic).wav” WAVE
INDEX 01 00:00:00
TRACK 03 AUDIO
TITLE “Foolish Fool (acoustic)”
PERFORMER “Sublime”
INDEX 00 02:45:53
FILE “03 – Sublime – Foolish Fool (acoustic).wav” WAVE
INDEX 01 00:00:00
TRACK 04 AUDIO
TITLE “Don’t Push (acoustic)”
PERFORMER “Sublime”
INDEX 00 02:16:17
FILE “04 – Sublime – Don’t Push (acoustic).wav” WAVE
INDEX 01 00:00:00
TRACK 05 AUDIO
TITLE “Mary/Big Salty Tears (acoustic)”
PERFORMER “Sublime”
INDEX 00 02:56:65
FILE “05 – Sublime – Mary,Big Salty Tears (acoustic).wav” WAVE
INDEX 01 00:00:00
TRACK 06 AUDIO
TITLE “Boss D.J. (acoustic)”
PERFORMER “Sublime”
INDEX 00 04:55:67
FILE “06 – Sublime – Boss D.J. (acoustic).wav” WAVE
INDEX 01 00:00:00
TRACK 07 AUDIO
TITLE “Garden Grove [Live] (acoustic)”
PERFORMER “Sublime”
INDEX 00 03:01:72
FILE “07 – Sublime – Garden Grove [Live] (acoustic).wav” WAVE
INDEX 01 00:00:00
TRACK 08 AUDIO
TITLE “Rivers Of Babylon (acoustic)”
PERFORMER “Sublime”
INDEX 00 01:55:50
FILE “08 – Sublime – Rivers Of Babylon (acoustic).wav” WAVE
INDEX 01 00:00:00
TRACK 09 AUDIO
TITLE “Little District (acoustic)”
PERFORMER “Sublime”
INDEX 00 02:37:12
FILE “09 – Sublime – Little District (acoustic).wav” WAVE
INDEX 01 00:00:00
TRACK 10 AUDIO
TITLE “KRS-One [Live] (acoustic)”
PERFORMER “Sublime”
INDEX 00 01:55:15
FILE “10 – Sublime – KRS-One [Live] (acoustic).wav” WAVE
INDEX 01 00:00:00
TRACK 11 AUDIO
TITLE “Marley Medley (Guava Jelly/This Train) (acoustic)”
PERFORMER “Sublime”
INDEX 00 03:36:40
FILE “11 – Sublime – Marley Medley (Guava Jelly,This Train) (acoustic).wav” WAVE
INDEX 01 00:00:00
TRACK 12 AUDIO
TITLE “What Happened/Eye Of Fatima (acoustic)”
PERFORMER “Sublime”
INDEX 00 02:58:25
FILE “12 – Sublime – What Happened,Eye Of Fatima (acoustic).wav” WAVE
INDEX 01 00:00:00
TRACK 13 AUDIO
TITLE “Free Way Time In L.A. County Jail (acoustic)”
PERFORMER “Sublime”
INDEX 00 01:56:17
FILE “13 – Sublime – Free Way Time In L.A. County Jail (acoustic).wav” WAVE
INDEX 01 00:00:00
TRACK 14 AUDIO
TITLE “Pool Shark (acoustic)”
PERFORMER “Sublime”
INDEX 00 04:21:58
FILE “14 – Sublime – Pool Shark (acoustic).wav” WAVE
INDEX 01 00:00:00
TRACK 15 AUDIO
TITLE “It’s Who You Know (acoustic)”
PERFORMER “Sublime”
INDEX 00 01:24:53
FILE “15 – Sublime – It’s Who You Know (acoustic).wav” WAVE
INDEX 01 00:00:00


Leave a Reply

Your email address will not be published. Required fields are marked *

Enter the text from the image below
 

This site uses Akismet to reduce spam. Learn how your comment data is processed.